<?xml version="1.0" standalone="no"?>
<!DOCTYPE svg PUBLIC "-//W3C//DTD SVG 1.1//EN" "http://www.w3.org/Graphics/SVG/1.1/DTD/svg11.dtd" >
<svg xmlns="http://www.w3.org/2000/svg">
<metadata>Generated by IcoMoon</metadata>
<defs>
<font id="joubel" horiz-adv-x="1024">
<font-face units-per-em="1024" ascent="960" descent="-64" />
<missing-glyph horiz-adv-x="1024" />
<glyph unicode="&#x20;" horiz-adv-x="512" d="" />
<glyph unicode="&#xe888;" horiz-adv-x="1091" d="M1015.937 644.199c10.751-33.596 16.126-69.207 16.126-105.491 0-232.483-231.139-421.291-516.031-421.291-38.971 0-188.136-26.205-296.315-46.362l-59.801-135.727c0 0 351.412 68.535 415.244 68.535 284.892 0 516.031 188.808 516.031 421.291-0.672 80.63-27.549 155.213-75.255 219.045z" />
<glyph unicode="&#xe889;" horiz-adv-x="1091" d="M1015.937 644.199c-57.113 181.417-259.36 315.801-499.906 315.801-284.892 0-516.031-188.808-516.031-421.291 0-117.585 59.129-223.748 154.541-300.346l-53.753-188.808c0 0 51.738 10.079 118.929 22.173 108.178 20.157 256.672 46.362 296.315 46.362 284.892 0 516.031 188.808 516.031 421.291 0 36.283-5.375 71.223-16.126 104.819z" />
<glyph unicode="&#xe900;" horiz-adv-x="1091" d="M1015.937 644.199c10.751-33.596 16.126-69.207 16.126-105.491 0-232.483-231.139-421.291-516.031-421.291-38.971 0-188.136-26.205-296.315-46.362l-59.801-135.727c0 0 351.412 68.535 415.244 68.535 284.892 0 516.031 188.808 516.031 421.291-0.672 80.63-27.549 155.213-75.255 219.045z" />
<glyph unicode="&#xe901;" horiz-adv-x="1091" d="M1015.937 644.199c-57.113 181.417-259.36 315.801-499.906 315.801-284.892 0-516.031-188.808-516.031-421.291 0-117.585 59.129-223.748 154.541-300.346l-53.753-188.808c0 0 51.738 10.079 118.929 22.173 108.178 20.157 256.672 46.362 296.315 46.362 284.892 0 516.031 188.808 516.031 421.291 0 36.283-5.375 71.223-16.126 104.819z" />
<glyph unicode="&#xe902;" horiz-adv-x="1091" d="M692.073 626.058c0-14.11-2.016-26.877-6.047-38.971s-8.735-22.173-13.438-29.564c-4.703-7.391-12.094-15.454-20.829-22.845-9.407-7.391-16.798-13.438-22.173-16.798s-13.438-8.063-23.517-13.438c-10.751-6.047-19.486-14.11-26.205-24.861s-10.751-19.486-10.751-25.533c0-4.031-1.344-8.735-4.703-12.766s-6.719-6.047-10.751-6.047h-92.052c-4.031 0-7.391 2.688-10.079 7.391s-4.031 9.407-4.031 14.11v17.47c0 21.501 8.063 41.659 24.861 60.472s34.94 32.924 55.097 41.659c15.454 6.719 26.205 14.11 32.252 21.501 6.719 7.391 9.407 17.47 9.407 28.892 0 10.751-6.047 20.157-18.142 28.22s-25.533 12.094-41.659 12.094c-16.798 0-30.236-4.031-41.659-11.423-8.735-6.719-22.845-20.829-40.987-44.346-3.36-4.031-7.391-6.047-12.094-6.047-3.36 0-6.047 1.344-9.407 3.36l-61.816 49.050c-3.36 2.688-5.375 6.047-6.047 9.407-0.672 4.031 0 7.391 2.016 10.751 40.987 67.864 100.787 102.131 178.058 102.131 20.829 0 40.987-4.031 61.816-12.094s39.643-18.814 56.441-31.58c16.798-13.438 30.236-29.564 40.987-49.050 10.079-19.486 15.454-39.643 15.454-61.144zM570.457 395.591v-92.052c0-4.031-1.344-7.391-4.703-10.751s-6.719-4.703-10.751-4.703h-92.052c-4.031 0-7.391 1.344-10.751 4.703s-4.703 6.719-4.703 10.751v92.052c0 4.031 1.344 7.391 4.703 10.751s6.719 4.703 10.751 4.703h92.052c4.031 0 7.391-1.344 10.751-4.703 3.36-2.688 4.703-6.719 4.703-10.751z" />
<glyph unicode="&#xe903;" horiz-adv-x="1091" d="M1015.937 644.199c10.751-33.596 16.126-69.207 16.126-105.491 0-232.483-231.139-421.291-516.031-421.291-38.971 0-188.136-26.205-296.315-46.362l-59.801-135.727c0 0 351.412 68.535 415.244 68.535 284.892 0 516.031 188.808 516.031 421.291-0.672 80.63-27.549 155.213-75.255 219.045z" />
<glyph unicode="&#xe904;" horiz-adv-x="1091" d="M1030.719 622.698c6.719-14.782 12.766-30.236 18.142-45.69 10.751-33.596 16.126-68.535 16.126-104.819 0-232.483-231.139-421.291-516.031-421.291-39.643 0-188.136-26.205-296.315-46.362-26.205-4.703-49.722-8.735-68.535-12.766l-24.861-55.769c0 0 351.412 68.535 415.244 68.535 284.892 0 516.031 188.808 516.031 421.291 0 71.223-21.501 138.415-59.801 196.871z" />
<glyph unicode="&#xe905;" horiz-adv-x="1091" d="M1048.861 577.008c-4.703 15.454-10.751 30.908-18.142 45.69-74.583 157.9-262.047 270.11-481.764 270.11-284.892 0-516.031-188.808-516.031-421.291 0-117.585 59.129-223.748 154.541-300.346l-53.753-188.808c0 0 19.486 4.031 50.394 9.407 19.486 3.36 43.003 8.063 68.535 12.766 108.178 20.157 256.672 46.362 296.315 46.362 284.892 0 516.031 188.808 516.031 421.291 0 36.283-5.375 71.223-16.126 104.819z" />
<glyph unicode="&#xe906;" horiz-adv-x="1091" d="M724.997 558.866c0-14.11-2.016-26.877-6.047-38.971s-8.735-22.173-13.438-29.564c-4.703-7.391-12.094-15.454-20.829-22.845-9.407-7.391-16.798-13.438-22.173-16.798s-13.438-8.063-23.517-13.438c-10.751-6.047-19.486-14.11-26.205-24.861s-10.751-19.486-10.751-25.533c0-4.031-1.344-8.735-4.703-12.766s-6.719-6.047-10.751-6.047h-92.052c-4.031 0-7.391 2.688-10.079 7.391s-4.031 9.407-4.031 14.11v17.47c0 21.501 8.063 41.659 24.861 60.472s34.94 32.924 55.097 41.659c15.454 6.719 26.205 14.11 32.252 21.501 6.719 7.391 9.407 17.47 9.407 28.892 0 10.751-6.047 20.157-18.142 28.22s-25.533 12.094-41.659 12.094c-16.798 0-30.236-4.031-41.659-11.423-8.735-6.719-22.845-20.829-40.987-44.346-3.36-4.031-7.391-6.047-12.094-6.047-3.36 0-6.047 1.344-9.407 3.36l-63.16 48.378c-3.36 2.688-5.375 6.047-6.047 9.407-0.672 4.031 0 7.391 2.016 10.751 40.987 67.864 100.787 102.131 178.058 102.131 20.829 0 40.987-4.031 61.816-12.094s39.643-18.814 56.441-31.58c16.798-13.438 30.236-29.564 40.987-49.050 11.423-18.814 16.798-38.971 16.798-60.472zM603.381 328.399v-92.052c0-4.031-1.344-7.391-4.703-10.751s-6.719-4.703-10.751-4.703h-92.052c-4.031 0-7.391 1.344-10.751 4.703s-4.703 6.719-4.703 10.751v92.052c0 4.031 1.344 7.391 4.703 10.751s6.719 4.703 10.751 4.703h92.052c4.031 0 7.391-1.344 10.751-4.703s4.703-6.719 4.703-10.751z" />
<glyph unicode="&#xe907;" glyph-name="examples" horiz-adv-x="1421" d="M952.805 828.213c-71.195 0-137.846-18.178-196.923-56.047v-615.006c60.592 30.296 125.728 45.444 196.923 45.444 121.183 0 204.497-33.325 315.077-78.769l-78.769 654.391c-72.71 33.325-157.538 49.988-236.308 49.988zM474.13 828.213c-78.769 0-163.598-16.663-236.308-49.988l-78.769-654.391c110.58 45.444 193.893 78.769 315.077 78.769 74.225 0 139.361-15.148 202.982-48.473v613.491c-59.077 42.414-130.272 60.592-202.982 60.592zM116.639 858.509l-116.639-901.302c119.669-39.385 230.249 93.917 451.408 90.888 180.26-3.030 260.544-109.065 260.544-109.065s103.006 119.669 289.325 115.124c127.243-3.030 333.254-169.657 419.598-99.976l-113.609 902.817c0 0-190.864 103.006-296.899 101.491-154.509-4.544-289.325-63.621-289.325-63.621s-165.112 71.195-271.148 65.136c-186.32-13.633-333.254-101.491-333.254-101.491zM1204.26 52.639c-80.284 36.355-163.598 59.077-251.456 59.077-90.888 0-174.201-30.296-239.337-95.432-65.136 65.136-148.45 95.432-239.337 95.432-87.858 0-171.172-21.207-251.456-57.562-51.503-22.722-104.521-36.355-162.083-36.355h-3.030l99.976 814.959c90.888 51.503 202.982 81.799 309.018 81.799 86.343 0 175.716-18.178 248.426-68.166 72.71 49.988 162.083 68.166 248.426 68.166 106.036 0 216.615-28.781 309.018-81.799l99.976-814.959c-62.107-1.515-113.609 10.604-168.142 34.84z" />
<glyph unicode="&#xe908;" horiz-adv-x="1091" d="M1015.937 644.199c10.751-33.596 16.126-69.207 16.126-105.491 0-232.483-231.139-421.291-516.031-421.291-38.971 0-188.136-26.205-296.315-46.362l-59.801-135.727c0 0 351.412 68.535 415.244 68.535 284.892 0 516.031 188.808 516.031 421.291-0.672 80.63-27.549 155.213-75.255 219.045z" />
<glyph unicode="&#xe909;" horiz-adv-x="1091" d="M633.617 361.995v-49.050c0-6.719-2.688-12.766-7.391-17.47s-10.751-7.391-17.47-7.391h-196.871c-6.719 0-12.766 2.688-17.47 7.391s-7.391 10.751-7.391 17.47v49.050c0 6.719 2.688 12.094 7.391 17.47 4.703 4.703 10.751 7.391 17.47 7.391h24.861v147.822h-24.861c-6.719 0-12.766 2.688-17.47 7.391s-7.391 10.751-7.391 17.47v49.050c0 6.719 2.688 12.094 7.391 17.47 4.703 4.703 10.751 7.391 17.47 7.391h147.822c6.719 0 12.094-2.688 17.47-7.391 4.703-4.703 7.391-10.751 7.391-17.47v-221.732h24.861c6.719 0 12.094-2.688 17.47-7.391 4.031-5.375 6.719-10.751 6.719-17.47zM583.895 804.787v-73.911c0-6.719-2.688-12.766-7.391-17.47s-10.751-7.391-17.47-7.391h-98.1c-6.719 0-12.766 2.688-17.47 7.391s-6.719 10.751-6.719 17.47v73.911c0 6.719 2.688 12.094 7.391 17.47 4.703 4.703 10.751 7.391 17.47 7.391h98.1c6.719 0 12.094-2.688 17.47-7.391 4.703-5.375 6.719-10.751 6.719-17.47z" />
<glyph unicode="&#xe90a;" horiz-adv-x="1091" d="M663.181 295.475v-49.050c0-6.719-2.688-12.766-7.391-17.47s-10.751-7.391-17.47-7.391h-196.871c-6.719 0-12.766 2.688-17.47 7.391s-7.391 10.751-7.391 17.47v49.050c0 6.719 2.688 12.094 7.391 17.47 4.703 4.703 10.751 7.391 17.47 7.391h24.861v147.822h-24.861c-6.719 0-12.766 2.688-17.47 7.391s-7.391 10.751-7.391 17.47v49.050c0 6.719 2.688 12.094 7.391 17.47 4.703 4.703 10.751 7.391 17.47 7.391h147.822c6.719 0 12.094-2.688 17.47-7.391s7.391-10.751 7.391-17.47v-221.732h24.189c6.719 0 12.094-2.688 17.47-7.391 4.703-5.375 7.391-10.751 7.391-17.47zM613.459 738.268v-73.911c0-6.719-2.688-12.766-7.391-17.47s-10.751-7.391-17.47-7.391h-98.1c-6.719 0-12.766 2.688-17.47 7.391s-7.391 10.751-7.391 17.47v73.911c0 6.719 2.688 12.094 7.391 17.47 4.703 4.703 10.751 7.391 17.47 7.391h98.1c6.719 0 12.094-2.688 17.47-7.391s7.391-10.751 7.391-17.47z" />
<glyph unicode="&#xe90b;" horiz-adv-x="1091" d="M1021.312 636.136c9.407-18.814 17.47-37.627 24.189-57.785 10.751-34.268 16.126-69.207 16.126-104.819 0-232.483-231.139-421.291-516.031-421.291-39.643 0-188.136-26.205-296.315-46.362-24.189-4.031-46.362-8.063-64.504-12.094l-25.533-57.785c0 0 351.412 68.535 415.244 68.535 284.892 0 516.031 188.808 516.031 421.291 0 77.27-24.861 148.493-69.207 210.31z" />
<glyph unicode="&#xe90c;" horiz-adv-x="1091" d="M1045.501 578.352c-6.047 20.157-14.11 38.971-24.189 57.785-77.942 151.181-262.047 258.016-475.717 258.016-284.892 0-516.031-188.808-516.031-421.291 0-117.585 59.129-224.42 154.541-300.346l-53.753-188.808c0 0 21.501 4.031 54.425 10.079 18.142 3.36 40.315 7.391 64.504 12.094 108.178 20.157 256.672 46.362 296.315 46.362 284.892 0 516.031 188.808 516.031 421.291 0 35.612-5.375 70.551-16.126 104.819z" />
<glyph unicode="&#xe90d;" glyph-name="tutorial" horiz-adv-x="1537" d="M1521.881 683.565l-747.565-234.821c-2.972 0-4.459 0-5.945 0s-4.459 0-5.945 0l-435.46 136.731c-38.642-29.724-65.393-104.035-69.852-193.208 25.266-14.862 41.614-41.614 41.614-72.824 0-29.724-14.862-56.476-38.642-71.338l38.642-288.325c0-5.945-1.486-11.89-5.945-16.348s-10.403-7.431-16.348-7.431h-127.814c-5.945 0-11.89 2.972-16.348 7.431s-5.945 10.403-5.945 16.348l38.642 288.325c-23.779 14.862-38.642 41.614-38.642 71.338 0 32.697 17.835 59.448 43.1 74.311 4.459 78.769 23.779 161.997 65.393 219.959l-219.959 69.852c-8.917 2.972-14.862 11.89-14.862 20.807s5.945 17.835 14.862 20.807l746.078 234.821c2.972 0 4.459 0 5.945 0s4.459 0 5.945 0l747.565-234.821c8.917-2.972 14.862-11.89 14.862-20.807s-4.459-17.835-13.376-20.807zM1194.914 276.343c5.945-93.631-191.721-170.914-426.543-170.914-234.821 1.486-432.488 77.283-426.543 170.914l11.89 211.042 383.443-120.383c10.403-2.972 20.807-4.459 32.697-4.459s20.807 1.486 32.697 4.459l383.443 120.383 8.917-211.042z" />
<glyph unicode="&#xe90e;" horiz-adv-x="1091" d="M1015.937 644.199c-57.113 181.417-259.36 315.801-499.906 315.801-284.892 0-516.031-188.808-516.031-421.291 0-117.585 59.129-223.748 154.541-300.346l-53.753-188.808c0 0 51.738 10.079 118.929 22.173 108.178 20.157 256.672 46.362 296.315 46.362 284.892 0 516.031 188.808 516.031 421.291 0 36.283-5.375 71.223-16.126 104.819z" />
<glyph unicode="&#xe90f;" horiz-adv-x="1091" d="M692.073 626.058c0-14.11-2.016-26.877-6.047-38.971s-8.735-22.173-13.438-29.564c-4.703-7.391-12.094-15.454-20.829-22.845-9.407-7.391-16.798-13.438-22.173-16.798s-13.438-8.063-23.517-13.438c-10.751-6.047-19.486-14.11-26.205-24.861s-10.751-19.486-10.751-25.533c0-4.031-1.344-8.735-4.703-12.766s-6.719-6.047-10.751-6.047h-92.052c-4.031 0-7.391 2.688-10.079 7.391s-4.031 9.407-4.031 14.11v17.47c0 21.501 8.063 41.659 24.861 60.472s34.94 32.924 55.097 41.659c15.454 6.719 26.205 14.11 32.252 21.501 6.719 7.391 9.407 17.47 9.407 28.892 0 10.751-6.047 20.157-18.142 28.22s-25.533 12.094-41.659 12.094c-16.798 0-30.236-4.031-41.659-11.423-8.735-6.719-22.845-20.829-40.987-44.346-3.36-4.031-7.391-6.047-12.094-6.047-3.36 0-6.047 1.344-9.407 3.36l-61.816 49.050c-3.36 2.688-5.375 6.047-6.047 9.407-0.672 4.031 0 7.391 2.016 10.751 40.987 67.864 100.787 102.131 178.058 102.131 20.829 0 40.987-4.031 61.816-12.094s39.643-18.814 56.441-31.58c16.798-13.438 30.236-29.564 40.987-49.050 10.079-19.486 15.454-39.643 15.454-61.144zM570.457 395.591v-92.052c0-4.031-1.344-7.391-4.703-10.751s-6.719-4.703-10.751-4.703h-92.052c-4.031 0-7.391 1.344-10.751 4.703s-4.703 6.719-4.703 10.751v92.052c0 4.031 1.344 7.391 4.703 10.751s6.719 4.703 10.751 4.703h92.052c4.031 0 7.391-1.344 10.751-4.703 3.36-2.688 4.703-6.719 4.703-10.751z" />
<glyph unicode="&#xe910;" horiz-adv-x="1091" d="M1015.937 644.199c-57.113 181.417-259.36 315.801-499.906 315.801-284.892 0-516.031-188.808-516.031-421.291 0-117.585 59.129-223.748 154.541-300.346l-53.753-188.808c0 0 51.738 10.079 118.929 22.173 108.178 20.157 256.672 46.362 296.315 46.362 284.892 0 516.031 188.808 516.031 421.291 0 36.283-5.375 71.223-16.126 104.819z" />
<glyph unicode="&#xe911;" horiz-adv-x="1091" d="M633.617 361.995v-49.050c0-6.719-2.688-12.766-7.391-17.47s-10.751-7.391-17.47-7.391h-196.871c-6.719 0-12.766 2.688-17.47 7.391s-7.391 10.751-7.391 17.47v49.050c0 6.719 2.688 12.094 7.391 17.47 4.703 4.703 10.751 7.391 17.47 7.391h24.861v147.822h-24.861c-6.719 0-12.766 2.688-17.47 7.391s-7.391 10.751-7.391 17.47v49.050c0 6.719 2.688 12.094 7.391 17.47 4.703 4.703 10.751 7.391 17.47 7.391h147.822c6.719 0 12.094-2.688 17.47-7.391 4.703-4.703 7.391-10.751 7.391-17.47v-221.732h24.861c6.719 0 12.094-2.688 17.47-7.391 4.031-5.375 6.719-10.751 6.719-17.47zM583.895 804.787v-73.911c0-6.719-2.688-12.766-7.391-17.47s-10.751-7.391-17.47-7.391h-98.1c-6.719 0-12.766 2.688-17.47 7.391s-6.719 10.751-6.719 17.47v73.911c0 6.719 2.688 12.094 7.391 17.47 4.703 4.703 10.751 7.391 17.47 7.391h98.1c6.719 0 12.094-2.688 17.47-7.391 4.703-5.375 6.719-10.751 6.719-17.47z" />
</font>
</defs>
</svg>
