<?xml version="1.0" standalone="no"?>
<!DOCTYPE svg PUBLIC "-//W3C//DTD SVG 1.1//EN" "http://www.w3.org/Graphics/SVG/1.1/DTD/svg11.dtd" >
<svg xmlns="http://www.w3.org/2000/svg">
<metadata>
<json>
<![CDATA[
{
	"fontFamily": "h5p",
	"description": "Font generated by IcoMoon.",
	"majorVersion": 1,
	"minorVersion": 1,
	"version": "Version 1.1",
	"fontId": "h5p",
	"psName": "h5p",
	"subFamily": "Regular",
	"fullName": "h5p"
}
]]>
</json>
</metadata>
<defs>
<font id="h5p" horiz-adv-x="1024">
<font-face units-per-em="1024" ascent="960" descent="-64" />
<missing-glyph horiz-adv-x="1024" />
<glyph unicode="&#x20;" horiz-adv-x="512" d="" />
<glyph unicode="&#xe600;" glyph-name="cross" data-tags="cross" d="M747.464 477.519l-99.28 99.28-136.184-136.184-136.184 136.184-99.28-99.28 136.184-136.184-136.184-136.184 99.28-99.28 136.184 136.184 136.184-136.184 99.28 99.28-136.184 136.184z" />
<glyph unicode="&#xe601;" glyph-name="check" data-tags="check" d="M444.375 304.514l-137.031 137.031-99.366-99.28 236.395-236.395 371.649 371.649-99.366 99.28z" />
<glyph unicode="&#xe602;" glyph-name="menu-drag-the-words-icon" data-tags="menu-drag-the-words-icon" d="M663.2 302.133c-11.2 16.799-27.999 22.401-44.801 22.401s-33.601-11.2-50.4-22.401v0c0 11.2 0 22.401 0 27.999v50.4h-50.4v-229.599h44.801l5.599 16.799h5.599c11.2-16.799 27.999-22.401 44.801-22.401s33.601 5.599 44.801 22.401c11.2 16.799 16.799 39.2 16.799 61.6 5.599 33.601 0 55.999-16.799 72.801v0zM624 201.333c-5.599-5.599-11.2-11.2-22.401-11.2s-22.401 5.599-27.999 11.2c-5.599 11.2-11.2 22.401-11.2 39.2v5.599c0 11.2 0 22.401 11.2 33.601 5.599 5.599 16.799 11.2 22.401 11.2 11.2 0 16.799-5.599 22.401-11.2 5.599-11.2 11.2-22.401 5.599-39.2 11.2-11.2 5.599-22.401 0-39.2v0zM792.002 190.133c5.599 0 16.799 0 22.401 5.599s16.799 5.599 22.401 11.2v-39.2c-5.599-5.599-16.799-5.599-22.401-11.2-11.2 0-16.799 0-27.999 0-50.4 0-78.399 27.999-78.399 84.001 0 22.401 5.599 44.801 22.401 61.6s39.2 22.401 61.6 22.401c16.799 0 33.601-5.599 50.4-11.2l-11.2-33.601-22.401 5.599c-5.599 0-11.2 0-16.799 0-22.401 0-33.601-16.799-33.601-50.4s11.2-44.801 33.601-44.801v0zM444.801 313.333c-11.2 11.2-27.999 16.799-50.4 16.799s-44.801-5.599-61.6-16.799l16.799-33.601c16.799 5.599 27.999 11.2 44.801 11.2s22.401-5.599 22.401-27.999v-5.599h-22.401c-22.401 0-39.2-5.599-55.999-16.799-11.2-11.2-16.799-22.401-16.799-39.2s5.599-27.999 16.799-39.2c11.2-11.2 22.401-16.799 39.2-16.799 11.2 0 22.401 0 33.601 5.599s16.799 11.2 22.401 16.799v0l11.2-16.799h22.401v112c-11.2 27.999-11.2 39.2-22.401 50.4v0zM422.4 223.734c0-11.2 0-16.799-5.599-22.401s-16.799-11.2-22.401-11.2c-16.799 0-22.401 5.599-22.401 22.401 0 5.599 5.599 16.799 11.2 22.401 11.2 5.599 16.799 5.599 27.999 5.599h16.799l-5.599-16.799zM898.401 425.334c5.599 0 16.799-5.599 16.799-16.799v0-285.601c0-5.599-5.599-16.799-16.799-16.799h-610.399c-5.599 0-16.799 5.599-16.799 16.799v0 285.601c0 5.599 5.599 16.799 16.799 16.799v0h610.399zM898.401 458.935h-610.399c-27.999 0-50.4-22.401-50.4-50.4v-285.601c0-27.999 22.401-50.4 50.4-50.4v0h610.399c27.999 0 50.4 22.401 50.4 50.4v285.601c0 27.999-22.401 50.4-50.4 50.4zM260 206.935h-67.199v33.601h67.199v-33.601zM142.401 206.935h-33.601c-16.799 0-27.999 11.2-27.999 27.999v0 11.2h33.601v-5.599h33.601l-5.599-33.601zM108.8 307.735h-33.601v67.199h33.601v-67.199zM108.8 436.534h-33.601v61.6h33.601v-61.6zM758.401 447.734h-33.601v61.6h33.601v-61.6zM108.8 565.333h-33.601v16.799c0 16.799 11.2 27.999 27.999 27.999h27.999v-33.601h-22.401v-11.2zM724.8 576.534h-22.401v33.601h27.999c16.799 0 27.999-11.2 27.999-27.999v0-16.799h-33.601v11.2zM652.002 576.534h-67.199v33.601h61.6l5.599-33.601zM523.2 576.534h-67.199v33.601h61.6l5.599-33.601zM394.401 576.534h-67.199v33.601h67.199v-33.601zM265.601 576.534h-67.199v33.601h61.6v-33.601z" />
<glyph unicode="&#xe603;" glyph-name="menu-mark-the-words-icon" data-tags="menu-mark-the-words-icon" d="M532.266 376.080c-11.581 0-28.953-5.791-34.744-17.372-5.791-17.372-11.581-34.744-11.581-52.113v-5.791c0-17.372 0-40.535 11.581-57.904 5.791-11.581 23.163-17.372 34.744-17.372s23.163 5.791 34.744 17.372c11.581 17.372 11.581 34.744 11.581 52.113s-5.791 34.744-11.581 52.113c-5.791 23.163-23.163 28.953-34.744 28.953v0zM659.658 584.535h-277.943c-46.322 0-86.857-40.535-86.857-86.857v-301.106c0-52.113 34.744-92.648 86.857-98.438h277.943c46.322 0 86.857 40.535 86.857 86.857v312.687c0 52.113-40.535 86.857-86.857 86.857 0 0 0 0 0 0v0zM619.123 213.944c-17.372-23.163-40.535-34.744-69.485-34.744-28.953-5.791-52.113 5.791-63.694 28.953h-5.791l-11.581-28.953h-52.113v335.847h69.485v-75.276c0-11.581-5.791-23.163-5.791-40.535v0c17.372 17.372 40.535 28.953 69.485 34.744 28.953 0 52.113-11.581 63.694-34.744 17.372-28.953 23.163-57.904 23.163-92.648 5.791-34.744 0-63.694-17.372-92.648zM914.438 237.107c11.581 0 23.163 0 34.744 5.791s23.163 11.581 28.953 17.372v-57.904c-11.581-5.791-23.163-11.581-28.953-11.581-11.581 0-28.953-5.791-40.535-5.791-75.276 0-110.020 40.535-110.020 121.601-5.791 34.744 5.791 69.485 28.953 92.648s52.113 34.744 86.857 34.744c23.163 0 52.113-5.791 75.276-17.372l-17.372-52.113c-11.581 5.791-17.372 5.791-28.953 11.581-5.791 0-17.372 5.791-28.953 5.791-34.744 0-52.113-23.163-52.113-69.485 0-52.113 17.372-75.276 52.113-75.276v0zM213.791 428.193c-17.372 17.372-40.535 23.163-69.485 23.163s-63.694-5.791-92.648-23.163l23.163-46.322c23.163 11.581 46.322 17.372 69.485 17.372s34.744-11.581 34.744-34.744v-11.581h-40.535c-28.953 0-52.113-5.791-75.276-17.372-17.372-11.581-28.953-34.744-23.163-57.904 0-23.163 5.791-40.535 17.372-57.904 11.581-11.581 34.744-23.163 52.113-23.163s28.953 0 46.322 5.791c11.581 5.791 28.953 17.372 34.744 28.953v0l11.581-28.953h28.953v156.342c5.791 34.744 5.791 52.113-17.372 69.485v0zM179.047 295.014c0-11.581 0-23.163-11.581-34.744s-23.163-11.581-34.744-11.581-28.953 11.581-28.953 28.953c0 11.581 5.791 23.163 11.581 28.953 11.581 5.791 23.163 11.581 40.535 11.581h23.163v-23.163z" />
<glyph unicode="&#xe604;" glyph-name="menu-anchor-icon" data-tags="menu-anchor-icon" d="M742.493 367.829l-90.080-116.577h47.691c-15.896-79.483-74.184-137.771-148.369-153.667v270.244h116.577v37.094h-116.577v58.288c52.99 21.195 74.184 84.782 52.99 132.473-21.195 52.99-84.782 74.184-132.473 52.99s-74.184-84.782-52.99-132.473c10.597-21.195 26.493-42.392 52.99-52.99v-58.288h-121.875v-37.094h116.577v-270.244c-79.483 15.896-137.771 74.184-148.369 153.667h47.691l-90.080 116.577-79.483-121.875h42.392c52.99-227.855 233.153-233.153 275.546-233.153s222.556 5.299 270.244 233.153h42.392l-84.782 121.875zM504.041 611.58c31.795 0 52.99-21.195 52.99-52.99s-21.195-52.99-52.99-52.99-52.99 21.195-52.99 52.99 26.493 52.99 52.99 52.99z" />
<glyph unicode="&#xe605;" glyph-name="menu-multiple-choice-set-icon" data-tags="menu-multiple-choice-set-icon" d="M314.514 590.933l-109.714-109.714c0 0-5.485-5.485-10.972-5.485s-5.485 0-10.972 5.485l-60.343 65.828c0 0-5.485 5.485-5.485 5.485 0 5.485 0 5.485 5.485 10.972l16.457 16.457c0 0 5.485 5.485 10.972 5.485s5.485 0 10.972-5.485l38.399-38.399 87.773 82.285c0 0 5.485 5.485 10.972 5.485s5.485 0 10.972-5.485l5.485-16.457c0 0 5.485-5.485 5.485-10.972 0 0-5.485-5.485-5.485-5.485v0zM281.6 283.735l-16.457-16.457c0 0-5.485-5.485-10.972-5.485s-5.485 0-10.972 5.485l-38.399 38.399-38.399-38.399c0 0-5.485-5.485-10.972-5.485s-5.485 0-10.972 5.485l-16.457 16.457c0 5.485 0 5.485 0 10.972s0 5.485 0 10.972l38.399 38.399-38.399 38.399c0 5.485 0 5.485 0 10.972s0 5.485 0 10.972l16.457 16.457c0 0 5.485 5.485 10.972 5.485s5.485 0 10.972-5.485l38.399-38.399 38.399 38.399c0 0 5.485 5.485 10.972 5.485s5.485 0 10.972-5.485l16.457-16.457c0 0 5.485-5.485 5.485-10.972s0-5.485-5.485-10.972l-38.399-38.399 38.399-38.399c0 0 5.485-5.485 5.485-10.972s0-5.485-5.485-10.972v0zM281.6 75.279l-16.457-16.457c0 0-5.485-5.485-10.972-5.485s-5.485 0-10.972 5.485l-38.399 38.399-38.399-38.399c0 0-5.485-5.485-10.972-5.485s-5.485 0-10.972 5.485l-16.457 16.457c0 5.485 0 5.485 0 10.972s0 5.485 0 10.972l38.399 38.399-38.399 38.399c0 5.485 0 5.485 0 10.972s0 5.485 0 10.972l16.457 16.457c0 0 5.485 5.485 10.972 5.485s5.485 0 10.972-5.485l38.399-38.399 38.399 38.399c0 0 5.485 5.485 10.972 5.485s5.485 0 10.972-5.485l16.457-16.457c0 0 5.485-5.485 5.485-10.972s0-5.485-5.485-10.972l-38.399-38.399 38.399-38.399c0 0 5.485-5.485 5.485-10.972s0-5.485-5.485-10.972v0zM906.972 519.621c0-16.457-16.457-32.914-32.914-32.914h-504.685c-16.457 0-32.914 16.457-32.914 32.914v27.429c0 16.457 16.457 32.914 32.914 32.914h504.685c16.457 0 32.914-16.457 32.914-32.914v-27.429zM906.972 322.134c0-16.457-16.457-32.914-32.914-32.914h-504.685c-16.457 0-32.914 16.457-32.914 32.914v21.942c0 16.457 16.457 32.914 32.914 32.914h504.685c16.457 0 32.914-16.457 32.914-32.914v-21.942zM906.972 130.134c0-16.457-16.457-32.914-32.914-32.914v0h-504.685c-16.457 0-32.914 16.457-32.914 32.914v21.942c0 16.457 16.457 32.914 32.914 32.914h504.685c16.457 0 32.914-16.457 32.914-32.914v-21.942z" />
<glyph unicode="&#xe606;" glyph-name="left" data-tags="left" d="M388.097 581.931h502.944v-94.573h-502.944v94.573zM388.097 388.56h502.944v-94.573h-502.944v94.573zM388.097 195.312h502.944v-94.573h-502.944v94.573zM308.932 172.693l-175.974 168.021 175.974 168.144z" />
<glyph unicode="&#xe607;" glyph-name="right" data-tags="right" d="M133.643 581.931h502.944v-94.573h-502.944v94.573zM133.643 388.56h502.944v-94.573h-502.944v94.573zM133.643 195.312h502.944v-94.573h-502.944v94.573zM714.383 508.858l175.974-168.144-175.974-168.021z" />
<glyph unicode="&#xe608;" glyph-name="bring-to-front" data-tags="bring-to-front" d="M661.751 556.782v102.41h-467.608v-467.608h102.41v-168.106h533.304v533.304h-168.106zM764.154 89.178h-401.91v102.41h299.499v299.499h102.41v-401.91z" />
<glyph unicode="&#xe609;" glyph-name="finger" data-tags="finger" d="M237.317 313.608c18.951 10.812 39.879 13.371 61.273 12.093 24.997-1.396 48.599-7.789 70.226-20.696 0.582-0.349 1.162-0.582 3.604-1.745-0.349 8.023-0.929 14.766-0.929 21.625 0 104.64 0.349 233.695-0.115 338.334-0.233 39.066 35.461 70.689 76.386 63.597 33.951-5.813 55.11-31.973 54.646-66.272-0.349-27.787 0-80.107-0.115-107.894 0-9.185-0.115-18.487-0.233-28.602 35.577 24.648 88.943 11.394 102.663-36.391 19.299 13.836 40.461 17.672 62.784 9.998 22.671-7.789 36.391-24.183 41.972-48.135 1.745 1.048 3.139 1.86 4.419 2.79 30.694 19.997 73.014 10.58 91.966-20.461 5.697-9.302 8.487-19.532 8.603-30.345 0.115-68.712 0.466-137.543 0-206.257-0.233-53.367-12.323-103.71-39.764-149.984-16.277-27.555-36.971-51.157-63.83-68.946-26.044-17.208-54.646-26.974-86.153-26.857-24.648 0-49.413-0.697-73.946 0.697-36.042 1.977-67.085 17.091-94.176 40.461-31.276 27.090-52.436 61.039-66.737 99.524-1.511 4.186-3.837 8.255-6.744 11.626-17.323 20.461-34.531 41.158-52.668 61.039-24.997 27.439-55.227 47.902-88.595 63.83-17.208 8.255-27.904 21.974-30.23 41.042-2.558 21.161 8.023 35.809 25.695 45.925z" />
<glyph unicode="&#xe60b;" glyph-name="radio-unselected" data-tags="radio-unselected" d="M512 797.335c-251.844 0-456-204.156-456-456s204.156-456 456-456 456 204.156 456 456-204.156 456-456 456zM512-0.665c-188.88 0-342 153.12-342 342s153.12 342 342 342c188.88 0 342-153.12 342-342s-153.12-342-342-342z" />
<glyph unicode="&#xe60c;" glyph-name="checkbox-selected" data-tags="checkbox-selected" d="M56 797.335v-912h912v912h-912zM911-57.665h-798v798h798v-798zM740 597.835l-285-285-171 171-114-114 285-285 399 399-114 114z" />
<glyph unicode="&#xe60d;" glyph-name="radio-selected" data-tags="radio-selected" d="M512 797.335c-251.844 0-456-204.156-456-456s204.156-456 456-456 456 204.156 456 456-204.156 456-456 456zM512-0.665c-188.88 0-342 153.12-342 342s153.12 342 342 342c188.88 0 342-153.12 342-342s-153.12-342-342-342zM341 341.335c0 94.44 76.56 171 171 171s171-76.56 171-171c0-94.44-76.56-171-171-171s-171 76.56-171 171z" />
<glyph unicode="&#xe900;" glyph-name="menu-dialog-cards-icon" data-tags="menu-dialog-cards-icon" d="M773.091 570.779l-279.551 100.216c-21.099 5.275-42.197-5.275-47.472-21.099l-15.824-36.923h131.864c36.923 0 63.293-26.373 63.293-63.293 0 0 0 0 0 0v-501.081l174.061 474.708c5.275 15.824 0 36.923-26.373 47.472 5.275 0 0 0 0 0zM593.758 549.68c0 21.099-15.824 36.923-36.923 36.923 0 0 0 0 0 0h-300.65c-21.099 0-36.923-15.824-36.923-36.923v0-506.356c0-21.099 15.824-36.923 36.923-36.923h300.65c21.099 0 36.923 15.824 36.923 36.923v506.356zM324.756 243.759c-5.275 0-5.275 0-10.549 0v0c0 0-5.275 0-5.275 5.275 0 0 0 5.275 0 5.275 5.275 5.275 10.549 10.549 15.824 21.099-21.099 10.549-31.648 26.373-31.648 47.472 0 31.648 36.923 63.293 84.392 63.293s84.392-26.373 84.392-63.293-36.923-63.293-84.392-63.293c-5.275 0-15.824 0-21.099 0-10.549-10.549-21.099-15.824-31.648-15.824v0zM493.543 217.385c0 0 5.275-5.275 0-5.275 0 0 0-5.275-5.275-5.275h-10.549c-10.549 5.275-21.099 10.549-31.648 15.824-5.275 0-15.824 0-21.099 0-21.099 0-42.197 5.275-58.021 15.824h10.549c26.373 0 47.472 5.275 68.568 21.099 21.099 10.549 31.648 31.648 31.648 58.021 0 5.275 0 10.549-5.275 21.099 21.099-10.549 31.648-26.373 31.648-47.472s-15.824-42.197-31.648-47.472c5.275-15.824 10.549-21.099 21.099-26.373v0z" />
<glyph unicode="&#xe901;" glyph-name="menu-questionnaire-icon" data-tags="menu-questionnaire-icon" d="M861.68 596.871l-43.037 43.037c-10.759 10.759-26.898 10.759-43.037 0l-188.288-199.051-91.454 91.454c-10.759 10.759-26.898 10.759-43.037 0l-43.037-43.037c-10.759-10.759-10.759-26.898 0-43.037l150.631-150.631c10.759-10.759 26.898-10.759 43.037 0l258.227 258.227c16.139 16.139 16.139 32.278 0 43.037v0zM576.555 214.911v-96.834h-344.302v344.302h91.454c-10.759 26.898-5.38 59.176 5.38 86.075h-182.912v-516.451h521.831v193.671c-21.519-10.759-37.658-16.139-59.176-16.139-10.759 0-21.519 0-32.278 5.38v0z" />
<glyph unicode="&#xe902;" glyph-name="menu-true-false-icon" data-tags="menu-true-false-icon" d="M453.343 556.408l-162.001-167.588c-5.587-5.587-16.76-5.587-27.93 0l-22.344 22.344-61.447 72.621c-5.587 5.587-5.587 16.76 0 27.93l22.344 22.344c5.587 5.587 16.76 5.587 27.93 0l55.864-55.864 122.898 128.484c11.173 5.587 22.344 5.587 27.93 0l22.344-22.344c5.587-5.587 5.587-11.173 5.587-16.76 0 0-5.587-5.587-11.173-11.173v0zM844.379 98.335l-22.344-22.344c-5.587-5.587-16.76-5.587-22.344 0 0 0 0 0 0 0l-50.277 50.277-50.277-50.277c-5.587-5.587-16.76-5.587-22.344 0 0 0 0 0 0 0l-22.344 22.344c-5.587 5.587-5.587 16.76 0 22.344l50.277 50.277-50.277 50.277c-5.587 5.587-5.587 16.76 0 22.344l22.344 22.344c5.587 5.587 16.76 5.587 22.344 0 0 0 0 0 0 0l50.277-50.277 50.277 50.277c5.587 5.587 16.76 5.587 22.344 0 0 0 0 0 0 0l22.344-22.344c5.587-5.587 5.587-16.76 0-22.344l-50.277-50.277 50.277-50.277c5.587 0 5.587-11.173 0-22.344v0zM710.311 584.339l-418.97-435.727c-11.173-11.173-11.173-27.93 0-39.104v0c11.173-11.173 27.93-11.173 39.104 0l418.97 435.727c11.173 11.173 11.173 27.93 0 39.104v0c-11.173 11.173-27.93 11.173-39.104 0z" />
<glyph unicode="&#xe903;" glyph-name="menu-navigational-hotspot-icon" data-tags="menu-navigational-hotspot-icon" d="M805.648 186.64c-5.245 5.245-26.217 0-31.462 0-10.486 10.486-20.976 20.976-26.217 20.976s-26.217-10.486-26.217-10.486c-10.486 10.486-26.217 20.976-31.462 20.976s-26.217-15.731-31.462-26.217c0 26.217 0 57.682 0 94.389 0 20.976-5.245 36.707-31.462 36.707s-31.462-15.731-31.462-36.707c0-57.682 0-110.12 0-167.799h-5.245l-26.217 26.217c-10.486 15.731-26.217 20.976-47.193 10.486s-15.731-31.462 0-41.951c26.217-31.462 52.438-68.169 78.658-99.631 5.245-10.486 15.731-15.731 26.217-15.731 52.438 0 99.631 0 152.068 0 10.486 0 15.731 10.486 20.976 15.731 10.486 47.193 15.731 94.389 20.976 146.827 5.245 5.245 0 15.731-10.486 26.217v0zM438.585 134.202c-136.337 41.951-214.995 183.53-178.289 319.871s183.53 220.237 319.871 178.289 220.237-183.53 178.289-319.871c-5.245-15.731-10.486-31.462-15.731-47.193h10.486c62.924 136.337 5.245 293.65-131.096 356.577s-293.65 10.486-356.577-125.851-5.245-293.65 131.096-356.577c15.731-5.245 31.462-10.486 41.951-15.731 0 5.245 0 10.486 0 10.486v0zM522.484 223.346c0 5.245 0 15.731 0 20.976h-10.486c-78.658 0-141.582 62.924-141.582 141.582s62.924 141.582 141.582 141.582c78.658 0 141.582-62.924 141.582-141.582 0 0 0 0 0 0s0-5.245 0-5.245c10.486-5.245 15.731-10.486 26.217-15.731 5.245-5.245 15.731-15.731 15.731-26.217 26.217 99.631-36.707 204.506-136.337 230.726s-204.506-36.707-230.726-136.337c-26.217-99.631 36.707-204.506 136.337-230.726 0 0 5.245 0 5.245 0l5.245 5.245c10.486 5.245 31.462 15.731 47.193 15.731v0z" />
<glyph unicode="&#xe904;" glyph-name="checkbox-unselected" data-tags="checkbox-unselected" d="M56 797.335v-912h912v912h-912zM911-57.665h-798v798h798v-798z" />
<glyph unicode="&#xe905;" glyph-name="tip-icon" data-tags="tip-icon" d="M601.6 196.268v-38.4c0-8.533-8.533-17.067-17.067-17.067h-145.067c-8.533 0-17.067 8.533-17.067 17.067v38.4c0 8.533 8.533 17.067 17.067 17.067h17.067v110.933h-17.067c-8.533 0-17.067 8.533-17.067 17.067v38.4c0 8.533 8.533 17.067 17.067 17.067h106.667c8.533 0 17.067-8.533 17.067-17.067v-166.4h17.067c12.8 0 21.333-8.533 21.333-17.067zM563.2 524.802v-55.467c0-8.533-8.533-17.067-17.067-17.067h-72.533c-8.533 0-17.067 8.533-17.067 17.067v55.467c0 8.533 8.533 17.067 17.067 17.067h72.533c12.8 0 17.067-8.533 17.067-17.067z" />
<glyph unicode="&#xe906;" glyph-name="comments-icon" data-tags="comments-icon" d="M584.534 305.069c-12.8-8.533-34.133-55.467-42.667-55.467h-76.8c-8.533 0-12.8 12.8-12.8 17.067v12.8c0 29.867 25.6 55.467 46.933 72.533 17.067 12.8 51.2 17.067 51.2 46.933s-38.4 42.667-59.733 38.4c-25.6-4.267-38.4-25.6-55.467-42.667-4.267-4.267-12.8-8.533-17.067-4.267l-51.2 38.4c-4.267 4.267-4.267 12.8 0 17.067 46.933 81.067 149.333 110.933 230.4 59.733 38.4-25.6 64-68.267 59.733-115.2-8.533-42.667-38.4-68.267-72.533-85.333-17.067-12.8 29.867 17.067 0 0zM554.668 138.669c0-8.533-4.267-12.8-12.8-12.8h-76.8c-8.533 0-12.8 4.267-12.8 12.8v76.8c0 8.533 4.267 12.8 12.8 12.8h76.8c8.533 0 12.8-4.267 12.8-12.8v-76.8z" />
<glyph unicode="&#xe907;" glyph-name="play-icon" data-tags="play-icon" d="M362.666 588.802c81.067 46.933 187.733 46.933 273.067 0 42.667-25.6 72.533-55.467 98.133-98.133 72.533-128 29.867-294.4-98.133-371.2-128-72.533-294.4-29.867-371.2 98.133-46.933 81.067-46.933 187.733 0 273.067 21.333 42.667 55.467 72.533 98.133 98.133zM631.466 337.068c12.8 8.533 12.8 29.867 0 38.4l-192 110.933c-8.533 4.267-12.8 4.267-21.333 0s-12.8-12.8-12.8-21.333v-226.133c0-8.533 4.267-17.067 12.8-21.333s17.067-4.267 21.333 0l192 119.467z" />
<glyph unicode="&#xe908;" glyph-name="bubble-icon" data-tags="bubble-icon" d="M921.6 384.003c-42.667 136.533-204.8 234.667-392.533 234.667-221.867 0-401.067-140.8-401.067-315.733 4.267-89.6 46.933-174.933 119.467-226.133l-42.667-140.8 93.867 17.067c85.333 12.8 200.533 34.133 230.4 34.133 221.867 0 405.333 140.8 405.333 315.733 0 25.6-4.267 55.467-12.8 81.067z" />
<glyph unicode="&#xe909;" glyph-name="video-upload-icon" data-tags="video-upload-icon" d="M394.666 300.803v-128c0-21.333 21.333-42.667 42.667-42.667h128c21.333 0 42.667 17.067 42.667 42.667v128c0 21.333-17.067 42.667-42.667 42.667h-128c-21.333 0-42.667-17.067-42.667-42.667zM795.733 471.469l-102.4 106.667c-12.8 12.8-38.4 21.333-55.467 21.333h-140.8l21.333-42.667h89.6v-136.533c0-17.067 12.8-29.867 29.867-29.867h140.8v-341.333h-426.667v328.533h-42.667v-341.333c0-17.067 12.8-29.867 29.867-29.867h448c17.067 0 29.867 12.8 29.867 29.867v384c4.267 17.067-8.533 38.4-21.333 51.2zM650.666 428.803v123.733c4.267 0 12.8-4.267 12.8-8.533l102.4-102.4c4.267-4.267 4.267-8.533 8.533-12.8h-123.733zM735.999 138.669v196.267c0 4.267-4.267 8.533-8.533 8.533s-8.533 0-12.8-4.267l-89.6-89.6v-29.867l89.6-89.6c8.533-4.267 8.533 0 12.8 0 4.267 4.267 8.533 4.267 8.533 8.533zM360.533 445.869v136.533l59.733-59.733c8.533-8.533 17.067-4.267 25.6 0l12.8 12.8c8.533 8.533 8.533 17.067 0 25.6l-115.2 106.667c-8.533 8.533-17.067 8.533-21.333 0l-115.2-110.933c-4.267-8.533-4.267-17.067 0-25.6l12.8-12.8c8.533-8.533 17.067-8.533 21.333 0l59.733 59.733v-136.533c0-8.533 8.533-17.067 17.067-17.067h25.6c0 0 17.067 8.533 17.067 21.333z" />
<glyph unicode="&#xe90a;" glyph-name="shadow-tip-comment-icon" data-tags="shadow-tip-comment-icon" d="M921.6 375.469c8.533-25.6 8.533-51.2 8.533-72.533 0-174.933-183.467-315.733-405.333-315.733-29.867 0-145.067-21.333-230.4-34.133l-42.667-102.4c0 0 268.8 51.2 320 51.2 217.6 0 396.8 145.067 396.8 324.267-4.267 55.467-17.067 106.667-46.933 149.333z" />
<glyph unicode="&#xe90b;" glyph-name="cp-slides-menu" data-tags="cp-slides-menu" horiz-adv-x="1184" d="M899.949 530.844h-85.388v71.067c-0.304 21.174-17.391 38.26-38.535 38.564l-490.884 0.001c-21.296 0-38.565-17.268-38.565-38.565v-412.077c0-20.995 17.016-38.011 38.011-38.011h84.842v-71.619c0.612-21.125 17.885-38.011 39.101-38.011 0.007 0 0.009 0 0.018 0h490.855c20.995 0 38.011 17.016 38.011 38.011v412.077c0.004 0.163 0.007 0.358 0.007 0.554 0 20.802-16.708 37.699-37.434 38.007zM369.432 492.283v-284.266h-66.108v375.163h451.739v-55.088h-345.964c-0.203 0.007-0.447 0.007-0.693 0.007-20.438 0-37.222-15.681-38.962-35.666zM880.669 474.103v-375.163h-456.149v375.163zM599.158 381.002h226.971v-34.154h-226.971v34.154zM599.158 300.018h226.971v-34.154h-226.971v34.154zM599.158 208.571h226.971v-34.154h-226.971v34.154zM492.829 381.002h46.277v-34.154h-46.277v34.154zM492.829 300.018h46.277v-34.154h-46.277v34.154zM492.829 208.571h46.277v-34.154h-46.277v34.154z" />
<glyph unicode="&#xe90c;" glyph-name="cp-edit" data-tags="cp-edit" d="M705.32 370.464l-327.799-327.799h-164.194v164.194l327.799 327.799zM392.233 128.59l-92.394 92.982-35.901-35.901v-42.371h50.613v-50.613h44.136zM554.074 466.979c-0.96 0.363-2.077 0.574-3.239 0.574s-2.275-0.211-3.3-0.595l-213.566-215.96c-0.363-0.96-0.574-2.077-0.574-3.239s0.211-2.275 0.595-3.3c-0.035-0.119-0.045-0.329-0.045-0.546 0-4.551 3.689-8.239 8.239-8.239 0.217 0 0.427 0.007 0.637 0.022 0.932-0.366 2.049-0.577 3.211-0.577s2.275 0.211 3.3 0.595l213.566 213.608c0.363 0.96 0.574 2.077 0.574 3.239s-0.211 2.275-0.595 3.3c0.563 1.001 0.876 2.261 0.876 3.591 0 4.551-3.689 8.239-8.239 8.239-0.511 0-1.013-0.049-1.495-0.133zM795.955 460.511l-65.324-65.324-163.605 164.783 65.324 65.324c8.967 9.085 21.421 14.712 35.189 14.712 0.044 0 0.088 0 0.132 0 13.981-0.007 26.663-5.621 35.9-14.721l92.391-92.391c8.993-9.292 14.576-21.931 14.711-35.875-0.007-14.019-5.621-26.691-14.721-35.931z" />
<glyph unicode="&#xe90d;" glyph-name="circle-outline" data-tags="circle-outline" d="M512 679.255c-186.628 0-337.92-151.292-337.92-337.92s151.292-337.92 337.92-337.92c186.628 0 337.92 151.292 337.92 337.92s-151.292 337.92-337.92 337.92zM512 47.788c-162.121 0-293.547 131.425-293.547 293.547s131.425 293.547 293.547 293.547c162.121 0 293.547-131.425 293.547-293.547s-131.425-293.547-293.547-293.547z" />
<glyph unicode="&#xe90e;" glyph-name="circle-fill" data-tags="circle-fill" d="M849.92 341.335c0-186.628-151.292-337.92-337.92-337.92s-337.92 151.292-337.92 337.92c0 186.628 151.292 337.92 337.92 337.92s337.92-151.292 337.92-337.92z" />
<glyph unicode="&#xe90f;" glyph-name="send-to-back" data-tags="send-to-back" d="M666.85 536.685v122.5h-477.7v-467.6h132.4v-168.1h513.3v513.2h-168zM769.25 89.085h-382v382l1.2-0.1h380.6v-381.9z" />
<glyph unicode="&#xe910;" glyph-name="arrow-thick" data-tags="arrow-thick" d="M787.543 311.81l-255.863-262.422c-6.562-6.562-19.68-13.123-32.803-13.123s-26.242 6.562-32.803 13.123l-26.242 26.242c-19.68 19.68-19.68 52.483 0 72.168v0l118.090 118.090h-288.663c-26.242 0-45.927 19.68-45.927 45.927v0 52.483c0 26.242 19.68 45.927 45.927 52.483v0h275.545l-118.090 118.090c-19.68 19.68-19.68 52.483 0 72.168v0l26.242 26.242c6.562 6.562 19.68 13.123 32.803 13.123s26.242-6.562 32.803-13.123l255.863-255.863c0 0 13.123-13.123 19.68-26.242 6.562-19.68 0-32.803-6.562-39.365z" />
<glyph unicode="&#xe911;" glyph-name="top-menu-video-icon" data-tags="top-menu-video-icon" d="M877.536 121.904c-0.257-10.537-6.75-19.495-15.92-23.342-3.188-1.36-6.693-2.156-10.373-2.257-0.177-0.004-0.342-0.006-0.505-0.006-7.014 0-13.341 2.947-17.809 7.674l-164.218 164.219v-66.561c0-0.003 0-0.006 0-0.009 0-64.23-52.068-116.298-116.298-116.298-0.514 0-1.027 0.004-1.542 0.010l-287.375-0.001c-0.328-0.004-0.714-0.006-1.102-0.006-63.846 0-115.675 51.448-116.291 115.148l-0.001 281.66c0.618 63.758 52.448 115.206 116.292 115.206 0.388 0 0.774-0.002 1.161-0.006l287.394 0.001c0.437 0.006 0.952 0.009 1.469 0.009 63.848 0 115.678-51.451 116.292-115.151l0.001-67.715 164.572 160.915c4.478 4.736 10.805 7.685 17.819 7.685 0.163 0 0.328-0.002 0.491-0.006 3.696-0.127 7.197-0.922 10.41-2.266 9.254-3.887 15.792-13.016 15.895-23.685z" />
<glyph unicode="&#xe912;" glyph-name="top-menu-summary-icon" data-tags="top-menu-summary-icon" d="M512 725.336c-212.077 0-384.001-171.923-384.001-384.001s171.923-384.001 384.001-384.001c212.077 0 384.001 171.923 384.001 384.001s-171.923 384.001-384.001 384.001zM512 31.447c-171.147 0-309.888 138.741-309.888 309.888s138.741 309.888 309.888 309.888c171.147 0 309.888-138.741 309.888-309.888 0-171.225-138.695-310.054-309.867-310.273zM620.288 435.799c-4.172 4.185-9.944 6.777-16.319 6.777s-12.148-2.59-16.319-6.777l-98.688-99.073-53.759 52.992c-4.172 4.185-9.944 6.777-16.319 6.777s-12.148-2.59-16.319-6.777l-38.401-38.401c-4.185-4.172-6.777-9.944-6.777-16.319s2.59-12.148 6.777-16.319l109.441-103.681c4.172-4.185 9.944-6.777 16.319-6.777s12.148 2.59 16.319 6.777l153.601 153.601c3.692 3.812 6.102 8.885 6.524 14.515-1.809 6.659-3.905 12.271-6.422 17.648s0.283-0.674 0.283-0.674z" />
<glyph unicode="&#xe913;" glyph-name="top-menu-background-icon" data-tags="top-menu-background-icon" d="M929.185 78.888c0.040-0.904 0.060-1.967 0.060-3.033 0-41.892-33.96-75.851-75.851-75.851-0.022 0-0.042 0-0.064 0h-682.663c-0.018 0-0.040 0-0.060 0-41.892 0-75.851 33.96-75.851 75.851 0 1.066 0.023 2.129 0.066 3.185l-0.006 524.743c-0.040 0.904-0.060 1.967-0.060 3.033 0 41.892 33.96 75.851 75.851 75.851 0.022 0 0.042 0 0.064 0h682.663c0.018 0 0.040 0 0.060 0 41.892 0 75.851-33.96 75.851-75.851 0-1.066-0.023-2.129-0.066-3.185zM170.666 620.47c-8.465-0.416-15.171-7.381-15.171-15.912 0-0.007 0-0.012 0-0.019v-526.41c0-0.006 0-0.011 0-0.018 0-8.531 6.706-15.496 15.133-15.91l682.704-0.002c8.465 0.416 15.171 7.381 15.171 15.912 0 0.007 0 0.012 0 0.019v526.41c0 0.006 0 0.011 0 0.018 0 8.531-6.706 15.496-15.133 15.91zM307.579 367.503c-50.501 1.056-91.034 42.245-91.034 92.9 0 0.54 0.005 1.080 0.014 1.617-0.008 0.376-0.014 0.915-0.014 1.455 0 50.655 40.535 91.843 90.936 92.898 50.433-1.263 90.755-42.367 90.755-92.889 0-0.543-0.005-1.085-0.014-1.625 0.008-0.374 0.013-0.91 0.013-1.448 0-50.789-40.747-92.059-91.336-92.904zM808.581 125.916h-592.782v25.789l151.703 151.703 75.851-78.887 208.971 210.488 155.495-162.323z" />
<glyph unicode="&#xe914;" glyph-name="top-menu-dnd-icon" data-tags="top-menu-dnd-icon" d="M648.268 640.002h-421.867c-48.5-0.212-87.734-39.577-87.734-88.106 0-0.132 0-0.263 0.001-0.395v-270.646c-0.002-0.222-0.004-0.484-0.004-0.748 0-48.531 39.235-87.896 87.717-88.106h421.886c48.461 0.63 87.527 39.959 87.733 88.459v271.061c0.001 0.111 0.001 0.243 0.001 0.374 0 48.53-39.235 87.895-87.714 88.106zM680.001 280.482c0-0.007 0-0.012 0-0.020 0-17.545-13.909-31.84-31.303-32.459l-422.297-0.002c-17.572 0.21-31.735 14.503-31.735 32.105 0 0.133 0.001 0.264 0.003 0.396v271.019c-0.002 0.112-0.003 0.244-0.003 0.375 0 17.602 14.163 31.895 31.717 32.105h422.261c17.409-0.416 31.363-14.627 31.363-32.097 0-0.133-0.001-0.269-0.003-0.402zM746.081 42.668h-92.587v49.653h92.587zM602.348 42.668h-90.347v49.653h90.72zM450.401 42.668h-53.013c-0.065 0-0.143 0-0.22 0-10.381 0-20.315 1.917-29.465 5.417l18.112 46.476c3.542-1.33 7.635-2.143 11.905-2.239l52.682-0.001v-49.653zM827.468 47.148l-16.8 47.413c13.628 4.624 23.301 17.208 23.52 32.081l51.148 0.026c-0.019-36.963-24.015-68.315-57.276-79.35zM362.668 117.335l-49.653-21.653v58.987h49.653zM885.334 181.175h-49.653v93.333h49.653zM885.334 323.042h-49.653v55.627l49.653 18.293zM813.281 407.415c-3.542 1.33-7.635 2.143-11.905 2.239l-28.042 0.001v50.4h28.373c0.065 0 0.143 0 0.22 0 10.381 0 20.315-1.917 29.465-5.417z" />
<glyph unicode="&#xe915;" glyph-name="top-menu-hotspot-icon" data-tags="top-menu-hotspot-icon" d="M512 725.336c-212.077 0-384.001-171.923-384.001-384.001s171.923-384.001 384.001-384.001c212.077 0 384.001 171.923 384.001 384.001s-171.923 384.001-384.001 384.001zM849.151 341.335c0-186.203-150.948-337.151-337.151-337.151s-337.151 150.948-337.151 337.151c0 186.203 150.948 337.151 337.151 337.151 186.115-0.219 336.934-151.035 337.151-337.132zM512 601.687c-143.789 0-260.352-116.563-260.352-260.352s116.563-260.352 260.352-260.352c143.789 0 260.352 116.563 260.352 260.352-0.218 143.701-116.651 260.134-260.331 260.352zM722.816 341.335c0-116.431-94.385-210.816-210.816-210.816s-210.816 94.385-210.816 210.816c0 116.431 94.385 210.816 210.816 210.816 116.343-0.218 210.598-94.473 210.816-210.795z" />
<glyph unicode="&#xe916;" glyph-name="top-menu-settings-icon" data-tags="top-menu-settings-icon" d="M840.341 406.58l-81.185 11.381c-5.667 17.216-12.343 32.017-20.356 45.952 15.804 19.677 32.117 39.404 47.292 59.89 2.13 2.774 3.415 6.296 3.415 10.116 0 0.044 0 0.088-0.001 0.134 0.011 0.213 0.018 0.47 0.018 0.729 0 3.443-1.147 6.619-3.080 9.167-22.39 27.918-46.381 52.749-72.461 75.221-3.636 3.278-7.468 4.973-11.693 5.165-0.088 0.002-0.149 0.003-0.208 0.003-4.054 0-7.737-1.59-10.459-4.179l-61.83-48.174c-11.139 5.849-24.321 11.379-38 15.8l-14.352 82.455c-1.312 7.59-7.847 13.289-15.712 13.289-0.211 0-0.422-0.005-0.631-0.012l-98.606 0.001c-0.021 0-0.043 0-0.068 0-7.663 0-14.091-5.285-15.842-12.407-5.746-23.625-10.31-51.842-12.774-80.659-15.926-7.877-29.314-14.14-42.039-21.428l-60.159 50.003c-3.081 2.591-7.012 4.261-11.321 4.548-15.234 0.004-75.933-64.868-85.796-79.664-2.377-2.756-3.911-6.298-4.17-10.191 0.18-4.195 1.882-7.91 4.554-10.679 16.307-20.102 32.62-39.829 47.416-61.453-6.335-11.6-12.126-25.162-16.615-39.306l-83.159-14.186c-6.953-2.143-11.953-8.43-12.139-15.912v-98.656c0.008-7.792 5.479-14.304 12.791-15.914l81.292-11.4c5.588-17.184 12.269-31.99 20.331-45.896-15.779-19.736-32.091-39.462-47.266-59.948-2.13-2.774-3.415-6.296-3.415-10.116 0-0.044 0-0.088 0.001-0.134-0.003-0.113-0.005-0.253-0.005-0.394 0-3.676 1.136-7.086 3.077-9.9 22.352-27.918 46.345-52.751 72.446-75.199 3.521-3.537 7.396-5.398 11.707-5.546 4.249 0.046 8.095 1.618 11.049 4.19l62.575 47.404c11.137-5.847 24.319-11.376 37.997-15.799l14.355-82.455c1.316-7.584 7.849-13.279 15.711-13.279 0.078 0 0.156 0.001 0.234 0.002h98.624c0.021 0 0.043 0 0.068 0 7.663 0 14.091 5.285 15.842 12.407 5.749 23.629 10.313 51.847 12.774 80.663 15.587 8.428 28.688 15.169 41.103 22.908l60.336-48.832c3.183-2.301 7.076-3.81 11.298-4.167 15.259-0.006 75.958 65.244 85.821 79.662 2.569 2.647 4.158 6.258 4.173 10.241-0.194 4.265-1.889 8.098-4.563 11.017-16.301 20.093-32.614 37.924-47.408 61.443 6.315 11.434 12.218 24.852 16.931 38.816l82.841 14.295c7.114 2.012 12.279 8.337 12.519 15.906l0.001 98.661c-0.749 7.265-6.17 13.072-13.177 14.399zM511.811 171.375c-94.283 0-170.714 76.431-170.714 170.714s76.431 170.714 170.714 170.714c94.283 0 170.714-76.431 170.714-170.714s-76.431-170.714-170.714-170.714z" />
<glyph unicode="&#xe917;" glyph-name="top-menu-interactions-icon" data-tags="top-menu-interactions-icon" d="M725.451 200.927c-1.978 0.229-4.272 0.358-6.595 0.358s-4.615-0.13-6.872-0.384c-10.186 12.623-25.855 20.588-43.384 20.588-0.197 0-0.394-0.001-0.591-0.003-0.157 0.003-0.378 0.004-0.6 0.004-8.355 0-16.275-1.86-23.37-5.189-10.428 10.21-24.84 16.497-40.717 16.822l-7.822 0.001v50.817c0 33.748-14.741 62.842-45.774 62.842-33.849 0-61.289-27.44-61.289-61.289v-131.115c-8.891 5.284-19.584 8.442-31.007 8.534-33.834-0.054-61.219-27.475-61.219-61.289 0-13.902 4.628-26.721 12.427-37.005l91.824-122.427c13.363-16.037 32.873-26.557 54.862-27.918l155.385-0.010c20.948 0 34.137 17.845 38.791 38.791l22.111 88.444c4.949 15.67 8.278 33.819 9.286 52.583l0.024 52.54c-0.861 30.048-25.323 54.103-55.452 54.307zM237.845 456.949c0.852 149.319 122.096 270.036 271.534 270.036 149.967 0 271.539-121.572 271.539-271.539 0-69.204-25.889-132.362-68.51-180.317 14.932-1.395 28.136-6.671 39.286-14.635 43.866 53.377 70.635 122.353 70.635 197.583 0 171.391-138.94 310.329-310.329 310.329s-310.329-138.94-310.329-310.329c0-118.815 66.773-222.035 164.838-274.181 12.693 9.899 26.439 17.863 41.771 21.93-100.056 41.030-169.878 137.854-170.432 251.052zM713.427 456.949c0.001 0.16 0.001 0.35 0.001 0.54 0 112.689-91.353 204.043-204.043 204.043s-204.043-91.353-204.043-204.043c0-90.658 59.126-167.509 140.92-194.091l1.444 38.386c-61.45 25.138-103.956 84.469-103.956 153.725 0 91.479 74.16 165.639 165.639 165.639s165.639-74.16 165.639-165.639c0-43.164-16.51-82.471-43.56-111.953 0.224-1.618 0.289-3.651 0.289-5.696s-0.065-4.079-0.191-6.095l0.013-38.516c49.912 37.537 81.849 96.645 81.849 163.214 0 0.17 0 0.341-0.001 0.511z" />
<glyph unicode="&#xe918;" glyph-name="download" data-tags="download" d="M761.481 433.96c0.002-0.148 0.003-0.324 0.003-0.5 0-11.072-4.586-21.075-11.96-28.211l-208.244-209.198c-7.441-7.396-17.697-11.968-29.020-11.968-0.064 0-0.126 0-0.191 0-0.139-0.002-0.314-0.003-0.49-0.003-11.072 0-21.075 4.586-28.211 11.96l-209.198 208.718c-7.383 6.919-11.984 16.731-11.984 27.618 0 0.388 0.005 0.775 0.018 1.16-0.005 0.173-0.009 0.445-0.009 0.716 0 11.139 4.583 21.207 11.968 28.421l23.942 23.942c7.441 7.396 17.697 11.968 29.020 11.968 0.064 0 0.126 0 0.191 0 0.139 0.002 0.314 0.003 0.49 0.003 11.072 0 21.075-4.586 28.211-11.96l95.75-95.75v227.378c-0.017 0.441-0.026 0.959-0.026 1.479 0 22.337 17.584 40.566 39.665 41.6l41.261 0.003c22.629-0.267 40.901-18.54 41.167-41.143v-225.488l95.738 95.738c7.146 7.386 17.149 11.971 28.221 11.971 0.176 0 0.351-0.001 0.526-0.003 0.027 0 0.091 0.001 0.154 0.001 11.324 0 21.58-4.572 29.022-11.97l23.934-23.934c6.446-7.234 10.385-16.825 10.385-27.335 0-1.839-0.12-3.649-0.355-5.426zM322.040 136.699h381.038c31.99 0 57.922-25.933 57.922-57.922v0.479c0-31.99-25.933-57.922-57.922-57.922h-381.038c-31.99 0-57.922 25.933-57.922 57.922v-0.479c0 31.99 25.933 57.922 57.922 57.922z" />
<glyph unicode="&#xe919;" glyph-name="cp-clone" data-tags="cp-clone" d="M866.394 508.869h-180.422v109.538c0 19.33-19.33 38.66-38.66 38.66h-483.265c-19.33 0-38.66-19.33-38.66-38.66 0 0 0 0 0 0v-405.945c0-19.33 19.33-38.66 38.66-38.66h180.422v-109.538c0-19.33 19.33-38.66 38.66-38.66h483.265c19.33 0 32.218 19.33 32.218 38.66 0 0 0 0 0 0v405.945c0 19.33-12.888 38.66-32.218 38.66 0 0 0 0 0 0zM847.064 450.874v-367.28h-451.047v373.727h451.047zM627.982 508.869h-244.853c-19.33 0-38.66-12.888-38.66-32.218 0 0 0 0 0 0v-244.853h-167.533v367.28h451.047v-90.208z" />
<glyph unicode="&#xe91a;" glyph-name="cp-background" data-tags="cp-background" d="M743.189 194.813c-13.023 0-26.052-13.023-26.052-26.052v0-91.173h-488.422v403.763h169.318c13.023 0 26.052 13.023 26.052 26.052 0 0 0 0 0 0v0c0 13.023-6.512 26.052-19.535 26.052h-195.37c-19.535 0-32.563-13.023-39.075-39.075v-429.81c0-19.535 19.535-32.563 39.075-32.563h520.983c19.535 0 32.563 13.023 32.563 32.563v110.708c6.512 6.512-6.512 19.535-19.535 19.535 0 0 0 0 0 0zM456.648 175.273c32.563 0 58.61 26.052 58.61 58.61-13.023 45.587-32.563 91.173-58.61 136.76-26.052-39.075-45.587-84.662-58.61-136.76 0-26.052 26.052-58.61 58.61-58.61v0zM827.848 455.299l-6.512 6.512v6.512c-58.61 78.145 19.535 123.732-58.61 169.318-26.052 13.023-52.098-6.512-71.633-32.563l-19.535 19.535c-6.512 6.512-26.052 6.512-32.563 0v0 0c-32.563-26.052-169.318-175.83-169.318-175.83s-13.023-13.023-6.512-19.535 26.052-6.512 26.052-6.512l71.633 6.512 117.22-123.732c19.535-19.535 58.61-19.535 78.145 0l78.145 84.662c19.535 13.023 19.535 45.587-6.512 65.122zM736.674 598.571c6.512 6.512 13.023 6.512 26.052 0 0 0 6.512-6.512 6.512-6.512 6.512-13.023 0-32.563 0-52.098 0-6.512 0-6.512 0-13.023l-52.098 58.61c0 0 6.512 6.512 19.535 13.023v0zM521.769 442.276c39.075 39.075 117.22 117.22 136.76 136.76l39.075-39.075 91.173-97.685h-267.003z" />
<glyph unicode="&#xe91b;" glyph-name="flash-cards-results-icon" data-tags="flash-cards-results-icon" d="M780.8 328.962h-537.6c-32.283 0-58.453-26.17-58.453-58.453v-45.227c1.181-31.352 26.882-56.32 58.414-56.32 0.014 0 0.027 0 0.041 0h537.598c32.283 0 58.453 26.17 58.453 58.453v43.093c0 32.283-26.17 58.453-58.453 58.453zM758.613 195.842h-493.227c-28.984 0-52.48 23.496-52.48 52.48s23.496 52.48 52.48 52.48h493.227c28.984 0 52.48-23.496 52.48-52.48s-23.496-52.48-52.48-52.48zM278.186 263.256h354.56c6.362 0 11.52-5.158 11.52-11.52v-5.12c0-6.362-5.158-11.52-11.52-11.52h-354.56c-6.362 0-11.52 5.158-11.52 11.52v5.12c0 6.362 5.158 11.52 11.52 11.52zM744.106 231.256l-5.973-5.973c-0.769-0.754-1.823-1.22-2.987-1.22s-2.218 0.465-2.987 1.22l-13.226 13.226-13.227-13.227c-0.769-0.754-1.823-1.22-2.987-1.22s-2.218 0.465-2.987 1.22l-5.973 5.973c-0.754 0.769-1.22 1.823-1.22 2.987s0.465 2.218 1.22 2.987l13.226 13.226-13.227 13.227c-0.754 0.769-1.22 1.823-1.22 2.987s0.465 2.218 1.22 2.987l5.973 5.973c0.769 0.754 1.823 1.22 2.987 1.22s2.218-0.465 2.987-1.22l13.226-13.226 13.227 13.227c0.769 0.754 1.823 1.22 2.987 1.22s2.218-0.465 2.987-1.22l5.973-5.973c0.754-0.769 1.22-1.823 1.22-2.987s-0.465-2.218-1.22-2.987l-13.226-13.226 13.227-13.227c0.754-0.769 1.22-1.823 1.22-2.987s-0.465-2.218-1.22-2.987zM780.8 513.709h-537.6c-32.283 0-58.453-26.17-58.453-58.453v-45.227c0-32.283 26.17-58.453 58.453-58.453h537.6c32.283 0 58.453 26.17 58.453 58.453v45.227c0 32.283-26.17 58.453-58.453 58.453zM811.52 433.069c-0.947-28.241-24.068-50.775-52.452-50.775-0.16 0-0.319 0.001-0.479 0.002h-493.202c-27.849 0.686-50.275 22.963-51.198 50.687l-0.002 0.086c0 0.005 0 0.010 0 0.016 0 28.534 22.772 51.749 51.134 52.463l493.293 0.001c0.127 0.001 0.277 0.002 0.427 0.002 28.984 0 52.48-23.496 52.48-52.48 0-0.001 0-0.001 0-0.002zM278.186 448.002h354.56c6.362 0 11.52-5.158 11.52-11.52v-5.12c0-6.362-5.158-11.52-11.52-11.52h-354.56c-6.362 0-11.52 5.158-11.52 11.52v5.12c0 6.362 5.158 11.52 11.52 11.52zM758.186 449.709l-38.4-38.4c-0.769-0.754-1.823-1.22-2.987-1.22s-2.218 0.465-2.987 1.22l-22.186 22.186c-0.754 0.769-1.22 1.823-1.22 2.987s0.465 2.218 1.22 2.987l5.973 5.973c0.769 0.754 1.823 1.22 2.987 1.22s2.218-0.465 2.987-1.22l13.226-13.226 29.44 29.44c0.769 0.754 1.823 1.22 2.987 1.22s2.218-0.465 2.987-1.22l5.973-5.973c0.754-0.769 1.22-1.823 1.22-2.987s-0.465-2.218-1.22-2.987z" />
<glyph unicode="&#xe91c;" glyph-name="shapes-menu-icon" data-tags="shapes-menu-icon" d="M475.733 334.934v0 311.467h-354.133l29.867-55.467h264.533v-256h-247.467v311.467h-59.733v-366.933h366.933zM723.199 416.001l93.867-93.867 38.4 34.133 59.733 59.733zM514.133 475.734v-64c64-17.067 110.933-72.533 110.933-136.533 0-76.8-64-140.8-140.8-140.8-64 0-115.2 42.667-132.267 102.4h-64c21.333-89.6 98.133-157.867 192-157.867 110.933 0 196.267 89.6 196.267 200.533 0 93.867-68.267 179.2-162.133 196.267z" />
<glyph unicode="&#xe91d;" glyph-name="shapes-type-circle" data-tags="shapes-type-circle" d="M512-34.132c-221.9 0-396.8 179.2-396.8 396.8 0 221.9 179.2 396.8 396.8 396.8s396.8-179.2 396.8-396.8c0-221.9-174.9-396.8-396.8-396.8zM512 695.468c-183.5 0-332.8-149.3-332.8-332.8s149.3-332.8 332.8-332.8 332.8 149.3 332.8 332.8-149.3 332.8-332.8 332.8z" />
<glyph unicode="&#xe91e;" glyph-name="shapes-type-horisontal-line" data-tags="shapes-type-horisontal-line" d="M125.85 426.668h772.3v-128h-772.3v128z" />
<glyph unicode="&#xe91f;" glyph-name="shapes-type-rectangle" data-tags="shapes-type-rectangle" d="M906.65-34.132h-793.6v793.6h797.9v-793.6h-4.3zM177.050 29.868h669.9v665.6h-669.9v-665.6z" />
<glyph unicode="&#xe920;" glyph-name="shapes-type-vertical-line" data-tags="shapes-type-vertical-line" d="M576 757.318v-789.3h-128v789.3z" />
<glyph unicode="&#xe921;" glyph-name="slidericon" data-tags="slider icon" d="M820 444.861c0 35.3-0.1 79.2-0.3 134v9.1c0 55.8-45.4 99.6-103.3 99.6h-411.6c-57-0.5-101.6-44.4-101.6-99.9v-191.3h0.1c0-21.7 0.1-45.6 0.2-72v-9.1c0-55.8 45.4-99.6 103.3-99.6h411.7c57 0.5 101.6 44.4 101.6 99.9l-0.1 129.3zM718.3 251.761h-411.6c-37.6 0-67 27.8-67 63.6v8.8c-0.1 36.5-0.2 79.6-0.2 120.7h-0.1v142.7c0 36 28.2 63.3 65.5 63.6h411.5c37.6 0 67-27.8 67-63.6v-8.8c0.1-50.5 0.2-113.5 0.3-166.3v-97c0.1-36-28.2-63.4-65.4-63.7zM546.6 133.661c18.6-32.9-15-66.5-47.9-47.9-4.3 2.1-7.2 5.7-10 10-18.6 32.9 15 66.5 47.9 47.9 4.3-2.1 7.9-5.7 10-10zM421.9 133.661c18.6-32.9-15-66.5-47.9-47.9-4.3 2.1-7.2 5.7-10 10-18.6 32.9 15 66.5 47.9 47.9 4.3-2.1 7.2-5.7 10-10zM671.3 133.661c18.6-32.9-15-66.5-47.9-47.9-4.3 2.1-7.2 5.7-10 10-18.6 32.9 15 66.5 47.9 47.9 4.3-2.1 7.2-5.7 10-10zM304.4 349.261v-5.8c0-11.9 3.2-22.7 8.6-29.1 3.9-4.1 8.3-6.4 13.5-6.4h372c12 0 22.1 13.6 22.1 30.5v48.7l-125.1 127.2-153-141.7-67.1 32.5-71-55.9zM61.6 458.961l59.4 59.4c4.1 4.1 10.7 4.1 14.8 0l9.9-9.9c4.1-4.1 4.1-10.7 0-14.8l-42-42.1 42.1-42.1c4.1-4.1 4.1-10.7 0-14.8l-9.9-9.9c-4.1-4.1-10.7-4.1-14.8 0l-59.4 59.4c-4.2 4.1-4.2 10.7-0.1 14.8v0zM962.4 444.161l-59.4-59.4c-4.1-4.1-10.7-4.1-14.8 0l-9.9 9.9c-4.1 4.1-4.1 10.7 0 14.8l42 42.1-42.1 42.1c-4.1 4.1-4.1 10.7 0 14.8l9.9 9.9c4.1 4.1 10.7 4.1 14.8 0l59.4-59.4c4.2-4.1 4.2-10.7 0.1-14.8v0zM452.3 538.761c0-35.236-28.564-63.8-63.8-63.8s-63.8 28.564-63.8 63.8c0 35.236 28.564 63.8 63.8 63.8s63.8-28.564 63.8-63.8z" />
<glyph unicode="&#xe922;" glyph-name="shapes-icon" data-tags="shapes-icon" d="M623.122 370.905v0 418.429h-476.691l42.372-74.151h354.87v-344.276h-333.683v418.429h-79.448v-497.877h492.581zM676.089 556.284v-84.745c84.745-21.187 148.304-95.338 148.304-185.379 0-105.931-84.745-190.676-190.676-190.676-84.745 0-153.6 58.261-180.083 137.71h-84.745c26.483-121.82 132.415-211.863 259.532-211.863 148.304 0 264.827 121.82 264.827 270.124 5.297 127.117-90.041 243.642-217.159 264.827z" />
<glyph unicode="&#xe923;" glyph-name="menu-cp-icon" data-tags="menu-cp-icon" d="M830.338 716.8h-636.675c-36.643 0-68.706-32.063-68.706-68.706v-425.976c0-36.643 32.063-68.706 68.706-68.706h178.635v-59.545h279.404v59.545h178.635c36.643 0 68.706 32.063 68.706 68.706v425.976c0 36.643-27.482 68.706-68.706 68.706zM830.338 222.118h-636.675v421.396h636.675v-421.396z" />
<glyph unicode="&#xe924;" glyph-name="done-button" data-tags="done-button" d="M384 248.747l-177.92 177.92-60.587-60.16 238.507-238.507 512 512-60.16 60.16z" />
<glyph unicode="&#xe925;" glyph-name="delete-button" data-tags="delete-button" d="M422.827 508.16c-2.56 2.56-6.4 3.84-10.24 3.84h-28.587c-7.68 0.427-13.653-5.547-14.080-13.227 0-0.427 0-0.427 0-0.853v-256c-0.427-7.68 5.547-13.653 13.227-14.080 0.427 0 0.427 0 0.853 0h28.587c7.68-0.427 13.653 5.547 14.080 13.227 0 0.427 0 0.427 0 0.853v256c0 3.84-1.28 7.68-3.84 10.24zM536.747 508.16c-2.987 2.56-6.827 4.267-10.667 3.84h-28.16c-7.68 0.427-13.653-5.547-14.080-13.227 0-0.427 0-0.427 0-0.853v-256c-0.427-7.68 5.547-13.653 13.227-14.080 0.427 0 0.427 0 0.853 0h28.587c7.68-0.427 13.653 5.547 14.080 13.227 0 0.427 0 0.427 0 0.853v256c0 3.84-1.28 7.68-4.267 10.24h0.427zM650.667 508.16c-2.987 2.56-6.827 4.267-10.667 3.84h-28.587c-7.68 0.427-13.653-5.547-14.080-13.227 0-0.427 0-0.427 0-0.853v-256c-0.427-7.68 5.547-13.653 13.227-14.080 0.427 0 0.427 0 0.853 0h28.587c7.68-0.427 13.653 5.547 14.080 13.227 0 0.427 0 0.427 0 0.853v256c0 3.84-1.28 7.68-3.84 10.24h0.427zM711.68 176.214c0-5.973-0.853-12.373-2.987-17.92-1.28-4.267-3.413-8.533-6.4-11.947-1.28-1.707-2.56-2.987-4.693-3.84h-370.347c-2.133 0.853-3.413 2.133-4.693 3.84-2.987 3.413-5.12 7.68-6.4 11.947-2.133 5.547-2.987 11.947-2.987 17.92v421.12h398.080v-421.12h0.427zM434.347 706.134c1.707 2.56 4.693 4.267 7.68 4.693h140.8c2.987-0.427 5.973-2.133 7.68-4.693l21.333-52.053h-199.253l21.76 52.053zM824.747 640c0.427 7.68-5.547 13.653-13.227 14.080-0.427 0-0.427 0-0.853 0h-137.387l-31.147 74.24c-4.693 11.52-13.227 21.333-23.893 28.16-10.24 7.253-22.613 11.093-34.987 11.52h-142.507c-12.373-0.427-24.747-4.267-34.987-11.52-10.667-6.827-19.2-16.64-23.893-28.16l-31.147-74.24h-137.387c-7.68 0.427-13.653-5.547-14.080-13.227 0-0.427 0-0.427 0-0.853v-28.587c-0.427-7.68 5.547-13.653 13.227-14.080 0.427 0 0.427 0 0.853 0h42.667v-422.827c-0.427-22.613 6.827-44.8 20.907-62.72 11.52-16.213 30.293-26.027 50.347-26.453h369.493c20.053 0.427 38.827 10.24 50.347 26.88 14.080 18.347 21.333 40.96 20.907 64v421.12h42.667c7.68-0.427 13.653 5.547 14.080 13.227 0 0.427 0 0.427 0 0.853v28.587z" />
<glyph unicode="&#xe926;" glyph-name="back-menu" data-tags="back-menu" d="M512 768l60.16-60.16-238.080-238.507h519.253v-85.333h-519.253l238.080-238.507-60.16-60.16-341.333 341.333z" />
<glyph unicode="&#xe927;" glyph-name="close-menu" data-tags="close-menu" d="M810.667 665.174l-60.16 60.16-238.507-238.507-238.507 238.507-60.16-60.16 238.507-238.507-238.507-238.507 60.16-60.16 238.507 238.507 238.507-238.507 60.16 60.16-238.507 238.507z" />
<glyph unicode="&#xe928;" glyph-name="bordered-check" data-tags="checkbox" d="M910.225 960h-796.448c-62.577 0-113.777-51.2-113.777-113.777v-796.448c0-62.575 51.2-113.775 113.777-113.775h796.448c62.575 0 113.775 51.2 113.775 113.775v796.448c0 62.577-51.2 113.777-113.775 113.777zM910.225 49.775h-796.448v796.448h796.448v-796.448zM852.764 618.667l-80.213 80.783-374.897-374.898-146.773 146.205-80.783-80.213 227.556-226.987 455.111 455.111z" />
<glyph unicode="&#xe929;" glyph-name="menu-navigational-hotspot-icon-cp" data-tags="menu-navigational-hotspot-icon-cp" d="M305.669 719.767h373.023v-178.771l59.023-45.908v283.701h-491.068v-491.197h233.991l29.511 59.023h-204.48zM408.235 185.152h-260.091v676.397h676.529v-466.277h13.115v479.392h-702.761v-702.631h273.209zM875.3 268.967c-6.82 6.82-24.132 8.393-41.315 0-4.067 15.609-29.38 26.627-36.201 26.756-17.708 0.263-32.531-12.985-32.531-12.985-13.769 13.769-26.493 23.477-42.891 22.952-14.033-0.525-32.789-16.001-39.741-29.772 0 34.365 0 75.68 0 123.815 0 27.545-6.82 48.135-41.315 48.135s-41.315-20.591-41.315-48.135c0-75.68 0-144.409 0-220.091h-6.82l-34.232 34.232c-13.769 20.591-34.365 27.545-61.909 13.769s-19.151-37.773-2.231-57.317c34.365-41.315 70.959-87.089 105.323-128.408 6.82-13.771 20.591-20.591 34.365-20.591 68.731 0 130.636 0 199.495 0 13.771 0 20.591 13.769 27.545 20.591 13.904 61.909 45.511 198.185 13.769 227.040v0 0z" />
<glyph unicode="&#xe92a;" glyph-name="bordered-cross" data-tags="cross" d="M638.269 642.857l-126.293-126.293-126.294 126.293-68.754-68.754 126.294-126.293-126.294-126.294 68.754-68.754 126.294 126.293 126.293-126.293 68.754 68.754-126.293 126.294 126.293 126.293-68.754 68.754zM511.977 935.429c-269.654 0-487.619-217.966-487.619-487.619 0-269.656 217.966-487.621 487.619-487.621 269.65 0 487.616 217.966 487.616 487.621 0 269.653-217.966 487.619-487.616 487.619zM511.977 57.717c-215.041 0-390.096 175.052-390.096 390.093s175.055 390.095 390.096 390.095c215.040 0 390.094-175.055 390.094-390.095s-175.054-390.093-390.094-390.093z" />
<glyph unicode="&#xe92b;" glyph-name="trophy" data-tags="trophy" d="M877.039 813.037h-104.3v104.296h-521.479v-104.296h-104.297c-57.363 0-104.296-46.933-104.296-104.297v-52.148c0-132.978 100.124-241.446 228.931-257.612 16.492-39.079 42.25-73.553 75.050-100.445 32.799-26.897 71.653-45.397 113.205-53.914v-161.661h-208.592v-104.294h521.479v104.294h-208.591v161.661c41.553 8.516 80.403 27.017 113.205 53.914 32.796 26.891 58.556 61.366 75.048 100.445 128.808 16.166 228.932 124.634 228.932 257.612v52.148c0 57.363-46.933 104.297-104.294 104.297zM146.963 656.593v52.148h104.297v-199.206c-60.492 21.902-104.297 79.265-104.297 147.058zM512 343.706c-86.044 0-156.444 70.398-156.444 156.443v312.889h312.889v-312.889c0-86.044-70.4-156.443-156.444-156.443zM877.039 656.593c0-67.793-43.804-125.156-104.3-147.058v199.206h104.3v-52.148z" />
<glyph unicode="&#xe92c;" glyph-name="playlist" data-tags="playlist" d="M640 704h-512v-85.333h512v85.333zM640 533.333h-512v-85.333h512v85.333zM128 277.333h341.333v85.333h-341.333v-85.333zM725.333 704v-349.013c-13.227 4.693-27.733 7.68-42.667 7.68-70.827 0-128-57.173-128-128s57.173-128 128-128 128 57.173 128 128v384h128v85.333h-213.333z" />
<glyph unicode="&#xe92d;" glyph-name="play-arrow" data-tags="play_arrow_black_24dp" d="M426.667 591.36l224.853-143.36-224.853-143.36v286.72zM341.333 746.667v-597.333l469.333 298.667-469.333 298.667z" />
<glyph unicode="&#xe92e;" glyph-name="pause" data-tags="pause_black_24dp" d="M256 149.333h170.667v597.333h-170.667v-597.333zM597.333 746.667v-597.333h170.667v597.333h-170.667z" />
<glyph unicode="&#xe980;" glyph-name="menu-video" data-tags="menu-video" d="M141.382 618.669v-554.667h741.236v554.667h-741.236zM282.571 109.385h-90.764v90.764h90.764v-90.764zM282.571 295.954h-90.764v90.764h90.764v-90.764zM282.571 477.482h-90.764v95.807h90.764v-95.807zM696.050 109.385h-368.097v463.903h368.097v-463.903zM837.236 109.385h-90.764v90.764h90.764v-90.764zM837.236 295.954h-90.764v90.764h90.764v-90.764zM837.236 477.482h-90.764v95.807h90.764v-95.807zM418.715 477.482v-277.333l186.571 141.189-186.571 136.146z" />
<glyph unicode="&#xe987;" glyph-name="cp-sort-left" data-tags="cp-sort-left" d="M393.605 78.94h-19.2c0-12.798 0-25.602-6.402-38.4 0-6.402 0-6.402-6.402-12.798 12.798-6.402 31.998-6.402 44.802-6.402 0 19.2 0 31.998-6.402 51.198l-6.402 6.402zM246.401 168.538l-12.798 12.798 76.8-6.402c12.798 0 25.602 12.798 25.602 25.602 0 6.402-6.402 12.798-12.798 19.2l-127.998 6.402h-12.798l-6.402-12.798v-6.402c0 0 0-6.402 0-6.402v0 0l-12.798-147.198c0-6.402 0-12.798 6.402-12.798l12.798-6.402c6.402 0 6.402 0 12.798 6.402s6.402 12.798 12.798 19.2l6.402 70.398 12.798-12.798c19.2 6.402 25.602 25.602 31.998 44.802l-12.798 6.402zM432.005 72.538c0-6.402 6.402-12.798 6.402-25.602 0-6.402 0-19.2 0-25.602 12.798 0 25.602 0 38.4 6.402 0 19.2-6.402 31.998-12.798 51.198-6.402 0-19.2-6.402-31.998-6.402zM528.005 98.14c-6.402 6.402-19.2 6.402-25.602 0l-12.798-12.798c6.402-12.798 12.798-31.998 12.798-51.198 12.798 6.402 25.602 6.402 38.4 12.798v0c6.402 6.402 12.798 19.2 6.402 31.998s-12.798 12.798-19.2 19.2zM272.003 142.936c-6.402-19.2-19.2-31.998-31.998-44.802 12.798-12.798 19.2-19.2 31.998-25.602 12.798 12.798 19.2 31.998 25.602 51.198l-25.602 19.2zM316.805 104.536c-6.402-19.2-12.798-31.998-25.602-51.198h6.402c12.798-6.402 25.602-12.798 44.802-19.2 0 6.402 6.402 6.402 6.402 12.798 6.402 12.798 6.402 25.602 6.402 38.4l-38.4 19.2zM944.003 661.336h-473.598c-19.2 0-38.4-19.2-38.4-38.4v-396.798c0-19.2 19.2-38.4 38.4-38.4h473.598c19.2 0 38.4 19.2 38.4 38.4 0 0 0 0 0 0v396.798c-6.402 19.2-19.2 38.4-38.4 38.4zM924.803 245.338h-435.198v364.8h435.198v-364.8zM380.801 309.34v243.198c0 12.798-12.798 25.602-19.2 25.602v0h-294.402c-12.798 0-25.602-12.798-25.602-25.602v-243.198c0-12.798 12.798-25.602 25.602-25.602h288c12.798 6.402 25.602 12.798 25.602 25.602zM342.401 322.138h-268.8v217.602h268.8v-217.602z" />
<glyph unicode="&#xe988;" glyph-name="cp-sort-right" data-tags="cp-sort-right" d="M633.599 78.94l19.2 6.402c0-12.798 0-25.602 6.402-38.4 0-6.402 0-6.402 6.402-12.798-12.798-6.402-31.998-6.402-44.802-6.402 0 19.2 0 31.998 6.402 51.198h6.402zM774.401 168.538l6.402 12.798h-70.398c-12.798 0-25.602 12.798-25.602 25.602 0 6.402 6.402 12.798 12.798 19.2l127.998 6.402h12.798l6.402-6.402v-6.402c0 0 0-6.402 0-6.402v0 0l6.402-140.802c0-6.402 0-12.798-6.402-12.798l-6.402-6.402h-6.402c-6.402 0-6.402 0-12.798 6.402s-6.402 12.798-6.402 19.2l-6.402 70.398-12.798-12.798c-19.2 6.402-25.602 25.602-31.998 44.802l12.798-12.798zM588.803 72.538c0-6.402-6.402-12.798-6.402-25.602 0-6.402 0-19.2 0-25.602-12.798 0-25.602 0-38.4 6.402 0 19.2 6.402 31.998 12.798 51.198 12.798 0 19.2-6.402 31.998-6.402zM492.803 98.14c6.402 6.402 19.2 6.402 25.602 0l12.798-12.798c-6.402-12.798-12.798-31.998-12.798-51.198-12.798 6.402-25.602 6.402-38.4 12.798v0c-6.402 6.402-12.798 19.2-6.402 31.998s12.798 12.798 19.2 19.2zM748.799 142.936c6.402-19.2 19.2-31.998 31.998-44.802-12.798-12.798-19.2-19.2-31.998-25.602-12.798 12.798-19.2 31.998-25.602 51.198l25.602 19.2zM704.003 104.536c6.402-19.2 12.798-31.998 25.602-51.198h-6.402c-12.798-6.402-25.602-12.798-44.802-19.2 0 6.402-6.402 6.402-6.402 12.798-6.402 12.798-6.402 25.602-6.402 38.4l38.4 19.2zM44.801 622.936v-396.798c0-19.2 12.798-38.4 31.998-38.4 0 0 0 0 0 0h473.598c19.2 0 38.4 19.2 38.4 38.4v396.798c0 19.2-19.2 38.4-38.4 38.4h-467.202c-19.2 0-38.4-19.2-38.4-38.4zM102.401 603.736h435.198v-358.398h-435.198v358.398zM665.603 283.738h288c12.798 0 25.602 12.798 25.602 25.602v243.198c0 12.798-12.798 25.602-25.602 25.602h-288c-12.798 0-25.602-12.798-25.602-19.2v0-243.198c6.402-19.2 12.798-31.998 25.602-31.998v0zM678.401 539.74h268.8v-223.998h-268.8v223.998z" />
<glyph unicode="&#xe989;" glyph-name="cp-delete" data-tags="cp-delete" d="M792.798 251.203c-13.868 0-27.732-13.868-27.732-27.732v-97.068h-520v422.932h180.268c13.868 0 27.732 13.868 27.732 27.732v0c6.932 13.868-6.932 34.668-20.8 34.668 0 0-6.932 0-6.932 0h-194.132c-27.732 0-41.6-20.8-41.6-41.6v-464.532c0-20.8 20.8-41.6 41.6-41.6h554.668c20.8 0 41.6 20.8 41.6 41.6v110.932c0 20.8-13.868 34.668-34.668 34.668 0 0 0 0 0 0zM633.33 466.135l-83.2-83.2c-6.932-6.932-6.932-13.868-6.932-27.732 0-20.8 13.868-34.668 34.668-34.668 6.932 0 20.8 6.932 27.732 6.932l83.2 83.2 83.2-83.2c6.932-6.932 13.868-6.932 27.732-6.932 20.8 0 34.668 13.868 34.668 34.668 0 6.932-6.932 20.8-6.932 27.732l-83.2 83.2 83.2 83.2c6.932 6.932 6.932 13.868 6.932 27.732 0 6.932-6.932 20.8-6.932 27.732-20.8 6.932-27.732 6.932-34.668 6.932s-20.8-6.932-27.732-6.932l-90.132-83.2-83.2 83.2c-13.868 13.868-34.668 13.868-48.532 0s-13.868-34.668 0-48.532l90.132-90.132z" />
<glyph unicode="&#xe990;" glyph-name="cp-new-slide" data-tags="cp-new-slide" d="M797.65 296.048c-13.933 0-27.867-13.933-27.867-27.867 0 0 0 0 0 0v-139.343h-515.563v431.958h209.010c13.933 0 27.867 13.933 27.867 27.867 0 0 0 0 0 0v0c0 13.933-13.933 27.867-27.867 27.867 0 0 0 0 0 0h-229.915c-20.9 0-41.8-20.9-41.8-41.8v-466.797c0-20.9 20.9-41.8 41.8-41.8h557.368c20.9 0 41.8 20.9 41.8 41.8v160.243c0 13.933-13.933 27.867-34.833 27.867 0 0 0 0 0 0zM804.617 498.097h-97.538v90.572c0 13.933-13.933 27.867-27.867 27.867h-13.933c-13.933 0-27.867-13.933-27.867-27.867v-97.538h-97.538c-13.933 0-27.867-13.933-27.867-27.867v-13.933c0-13.933 13.933-27.867 27.867-27.867h97.538v-97.538c0-13.933 13.933-27.867 27.867-27.867h13.933c13.933 0 27.867 13.933 27.867 27.867v97.538h97.538c13.933 0 27.867 13.933 27.867 27.867v13.933c0 20.9-13.933 27.867-27.867 34.833z" />
<glyph unicode="&#xe991;" glyph-name="menu-drag-and-drop-icon" data-tags="menu-drag-and-drop-icon" d="M626.476 216.21h-394.015c-42.596 0-79.867 37.271-79.867 79.867v287.523c0 42.596 37.271 79.867 79.867 79.867h388.69c42.596 0 79.867-37.271 79.867-79.867v0-287.523c5.326-47.922-31.948-79.867-74.544-79.867zM232.464 615.548c-15.974 0-31.948-15.974-31.948-31.948v0-287.523c0-15.974 15.974-31.948 31.948-31.948h388.69c15.974 0 31.948 15.974 31.948 31.948v287.523c0 15.974-15.974 31.948-31.948 31.948h-388.69zM738.291 19.202h-69.219v47.922h69.219v-47.922zM594.528 19.202h-69.219v47.922h69.219v-47.922zM450.768 19.202h-53.245c-10.648 0-21.297 0-26.622 5.326l15.974 47.922c5.326 0 5.326 0 10.648 0h53.245v-53.245zM818.158 24.528l-15.974 47.922c15.974 5.326 21.297 15.974 21.297 31.948h47.922c0-37.271-21.297-69.219-53.245-79.867zM370.901 104.395h-47.922v69.219h47.922v-69.219zM871.406 173.614h-47.922v69.219h47.922v-69.219zM871.406 317.377h-47.922v69.219h47.922v-69.219zM802.187 423.866c-5.326 0-5.326 0-10.648 0h-53.245v47.922h53.245c10.648 0 21.297 0 26.622-5.326l-15.974-42.596z" />
<glyph unicode="&#xe992;" glyph-name="menu-summary-icon" data-tags="menu-summary-icon" d="M796.899 612.268h-575.385c-11.173 0-22.344-11.173-22.344-22.344v0-44.69c0-11.173 11.173-22.344 22.344-22.344v0h580.971c11.173 0 22.344 11.173 22.344 22.344v44.69c-5.587 11.173-16.76 22.344-27.93 22.344zM796.899 478.2h-446.9c-11.173 0-22.344-11.173-22.344-22.344 0 0 0 0 0 0v-44.69c0-11.173 11.173-16.76 22.344-16.76v0h446.9c11.173 0 22.344 11.173 22.344 22.344v39.104c0 11.173-11.173 22.344-22.344 22.344zM796.899 316.198h-446.9c-11.173 0-22.344-11.173-22.344-22.344v0-44.69c0-11.173 11.173-22.344 22.344-22.344v0h446.9c11.173 0 22.344 11.173 22.344 22.344v44.69c0 16.76-11.173 22.344-22.344 22.344 0 0 0 0 0 0zM796.899 159.781h-446.9c-11.173 0-22.344-11.173-22.344-22.344v0-44.69c0-11.173 11.173-22.344 22.344-22.344h446.9c11.173 0 22.344 11.173 22.344 22.344v44.69c0 11.173-11.173 22.344-22.344 22.344zM260.618 478.2h-39.104c-11.173 0-22.344-11.173-22.344-22.344v0-44.69c0-11.173 11.173-22.344 22.344-22.344v0h39.104c11.173 0 22.344 11.173 22.344 22.344v44.69c-5.587 11.173-11.173 22.344-22.344 22.344zM260.618 316.198h-39.104c-11.173 0-22.344-11.173-22.344-22.344v0-44.69c0-11.173 11.173-22.344 22.344-22.344v0h39.104c11.173 0 22.344 11.173 22.344 22.344v44.69c0 16.76-11.173 22.344-22.344 22.344 0 0 0 0 0 0zM260.618 159.781h-39.104c-11.173 0-22.344-11.173-22.344-22.344v0-44.69c0-11.173 11.173-22.344 22.344-22.344h39.104c11.173 0 22.344 11.173 22.344 22.344v44.69c-5.587 11.173-11.173 22.344-22.344 22.344z" />
<glyph unicode="&#xe993;" glyph-name="menu-single-choice-set-icon" data-tags="menu-single-choice-set-icon" d="M782.557 391.030h-364.424c-11.044 0-27.606-11.044-27.606-22.086 0 0 0 0 0 0v-49.695c0-11.044 11.044-22.086 27.606-22.086 0 0 0 0 0 0h358.901c11.044 0 27.606 11.044 27.606 22.086 0 0 0 0 0 0v49.695c0 11.044-11.044 22.086-22.086 22.086 0 0 0 0 0 0zM843.293 197.773h-425.16c-11.044 0-27.606-11.044-27.606-22.086 0 0 0 0 0 0v-49.695c0-11.044 11.044-22.086 27.606-22.086 0 0 0 0 0 0h425.16c11.044 0 27.606 11.044 27.606 22.086 0 0 0 0 0 0v44.171c0 11.044-11.044 27.606-27.606 27.606 0 0 0 0 0 0v0zM859.858 589.807h-441.725c-11.044 0-27.606-11.044-27.606-22.086 0 0 0 0 0 0v-49.695c0-11.044 11.044-22.086 27.606-22.086 0 0 0 0 0 0h436.205c11.044 0 27.606 11.044 27.606 22.086 0 0 0 0 0 0v44.171c0 16.565-11.044 27.606-22.086 27.606 0 0 0 0 0 0zM230.397 595.327c33.13 0 55.216-27.606 49.695-55.216s-27.606-55.216-55.216-49.695c-27.606 0-49.695 27.606-49.695 55.216 0 22.086 22.086 49.695 55.216 49.695 0 0 0 0 0 0zM230.397 617.413c-44.171 0-82.825-38.651-77.301-82.825 0-44.171 38.651-82.825 82.825-77.301 44.171 0 77.301 38.651 77.301 82.825s-33.13 82.825-82.825 77.301zM230.397 203.297c33.13 0 55.216-27.606 49.695-55.216s-27.606-55.216-55.216-49.695c-27.606 0-49.695 27.606-49.695 55.216 0 22.086 22.086 49.695 55.216 49.695 0 0 0 0 0 0v0zM230.397 225.383c-44.171 0-82.825-38.651-77.301-82.825 0-44.171 38.651-82.825 82.825-77.301 44.171 0 77.301 38.651 77.301 82.825s-38.651 77.301-82.825 77.301v0zM324.267 341.335c0-49.695-38.651-93.866-88.346-93.866s-93.866 38.651-93.866 88.346c0 49.695 38.651 93.866 88.346 93.866 0 0 0 0 5.521 0 44.171 0 82.825-38.651 88.346-88.346v0z" />
<glyph unicode="&#xe994;" glyph-name="menu-fill-in-the-blanks-icon" data-tags="menu-fill-in-the-blanks-icon" d="M832 198.176h-134.737c-11.227 0-22.458-11.227-22.458-22.458v-50.526c0-11.227 11.227-22.458 22.458-22.458h134.737c11.227 0 22.458 11.227 28.071 22.458v50.526c-5.614 11.227-16.841 22.458-28.071 22.458zM427.789 389.053h-235.789c-11.227 0-22.458-11.227-22.458-22.458v-50.526c0-11.227 11.227-22.458 22.458-22.458h235.789c11.227 0 22.458 11.227 22.458 22.458v50.526c0 11.227-11.227 22.458-22.458 22.458zM809.542 389.053c11.227 0 22.458-11.227 28.071-22.458v-50.526c0-11.227-11.227-22.458-28.071-22.458h-275.088c-11.227 0-22.458 11.227-22.458 22.458v50.526c0 11.227 11.227 22.458 22.458 22.458h275.088zM809.542 417.124h-275.088c-28.071 0-50.526-22.458-50.526-50.526v-50.526c0-28.071 22.458-50.526 50.526-50.526h269.474c28.071 0 50.526 22.458 56.14 50.526v50.526c0 28.071-28.071 50.526-50.526 50.526v0zM590.594 198.176c11.227 0 22.458-11.227 22.458-22.458v-50.526c0-11.227-11.227-22.458-22.458-22.458h-224.562c-11.227 0-22.458 11.227-22.458 22.458v50.526c0 11.227 11.227 22.458 22.458 22.458h224.562zM590.594 226.247h-224.562c-28.071 0-50.526-22.458-50.526-50.526v-50.526c0-28.071 22.458-50.526 50.526-50.526h224.562c28.071 0 50.526 22.458 50.526 50.526v50.526c0 28.071-22.458 50.526-50.526 50.526v0zM579.367 579.929c11.227 0 22.458-11.227 22.458-22.458v-56.14c0-11.227-11.227-22.458-22.458-22.458h-123.51c-11.227 0-22.458 11.227-22.458 22.458v50.526c0 11.227 11.227 22.458 22.458 22.458h123.51zM579.367 608.001h-123.51c-28.071 0-50.526-22.458-50.526-50.526v-56.14c0-28.071 22.458-50.526 50.526-50.526h123.51c28.071 0 50.526 22.458 50.526 50.526v50.526c0 28.071-22.458 56.14-50.526 56.14v0zM192 478.877h151.578c11.227 0 22.458 11.227 22.458 22.458v50.526c0 11.227-11.227 22.458-22.458 22.458h-151.578c-11.227 0-22.458-11.227-22.458-22.458v-50.526c-5.614-11.227 5.614-22.458 22.458-22.458zM691.649 478.877h140.351c11.227 0 22.458 11.227 28.071 22.458v50.526c0 11.227-11.227 22.458-28.071 22.458h-140.351c-11.227 0-22.458-11.227-22.458-22.458v-50.526c0-11.227 11.227-22.458 22.458-22.458zM192 97.124h67.367c11.227 0 22.458 11.227 22.458 22.458v50.526c0 11.227-11.227 22.458-22.458 22.458h-67.367c-11.227 0-22.458-11.227-22.458-22.458v-50.526c-5.614-11.227 5.614-22.458 22.458-22.458z" />
<glyph unicode="&#xe995;" glyph-name="menu-exportable-text-icon" data-tags="menu-exportable-text-icon" d="M787.086 428.354l-218.948-218.948h-106.666v106.666l218.948 218.948 106.666-106.666zM579.368 265.549l-61.753 61.753-22.458-22.458v-28.071h33.685v-33.685h28.071l22.458 22.458zM686.034 490.108c0 0-5.614 0 0 0l-145.964-140.351c0 0 0-5.614 0-5.614 0-5.614 0-5.614 5.614-5.614v0c0 0 5.614 0 5.614 0l140.351 140.351c0 0 0 5.614 0 5.614 0 5.614-5.614 5.614-5.614 5.614v0zM843.226 484.494l-39.299-39.299-106.666 106.666 44.912 44.912c5.614 5.614 16.841 11.227 22.458 11.227 11.227 0 16.841-5.614 22.458-11.227l61.753-61.753c5.614-5.614 11.227-16.841 11.227-22.458-5.614-11.227-5.614-22.458-16.841-28.071v0zM860.070 74.669h-44.912v22.458h28.071v22.458h22.458l-5.614-44.912zM747.787 74.669h-67.367v22.458h67.367v-22.458zM613.050 74.669h-67.367v22.458h67.367v-22.458zM478.313 74.669h-67.367v22.458h67.367v-22.458zM343.579 74.669h-72.984v22.458h67.367l5.614-22.458zM208.842 74.669h-50.526v44.912h22.458v-22.458h22.458l5.614-22.458zM180.771 181.338h-22.458v61.753h22.458v-61.753zM180.771 310.458h-22.458v61.753h22.458v-61.753zM180.771 433.968h-22.458v61.753h22.458v-61.753zM180.771 563.091h-22.458v44.912h44.912v-22.458h-22.458v-22.458zM613.050 585.546h-67.367v22.458h67.367v-22.458zM478.313 585.546h-67.367v22.458h67.367v-22.458zM343.579 585.546h-72.984v22.458h67.367l5.614-22.458zM865.683 181.338h-22.458v61.753h22.458v-61.753zM865.683 304.845h-22.458v61.753h22.458v-61.753zM242.524 529.406h89.825v-22.458h-95.438l5.614 22.458zM242.524 170.111h89.825v-22.458h-95.438l5.614 22.458zM276.209 512.565h22.458v-359.299h-22.458v359.299z" />
<glyph unicode="&#xe996;" glyph-name="menu-continous-text-icon" data-tags="menu-continous-text-icon" d="M419.597 610.133v-89.6h-11.2c0 16.799-5.599 33.601-16.799 44.801-5.599 11.2-16.799 16.799-27.999 22.401-5.599 5.599-16.799 5.599-27.999 5.599h-27.999v-257.599c0-11.2 0-22.401 5.599-33.601 0-5.599 5.599-11.2 11.2-11.2 5.599-5.599 16.799-5.599 22.401-5.599h11.2v-11.2h-179.199v11.2h11.2c5.599 0 16.799 0 22.401 5.599 5.599 0 5.599 5.599 11.2 11.2 0 11.2 0 22.401 0 33.601v257.599h-22.401c-16.799 0-33.601-5.599-50.4-16.799-11.2-11.2-22.401-33.601-22.401-55.999h-11.2v89.6h302.4zM906.798 408.533v-89.6h-11.2c-5.599 16.799-11.2 33.601-16.799 44.801s-16.799 16.799-27.999 22.401c-11.2 5.599-22.401 5.599-33.601 5.599h-22.401v-257.599c0-11.2 0-22.401 0-33.601 0-5.599 5.599-11.2 11.2-11.2 5.599-5.599 16.799-5.599 22.401-5.599h11.2v-11.2h-173.601v11.2h16.799c5.599 0 16.799 0 22.401 5.599 5.599 0 5.599 5.599 11.2 11.2 0 11.2 0 22.401 0 33.601v257.599h-22.401c-16.799 0-33.601-5.599-50.4-16.799-16.799-16.799-22.401-33.601-27.999-55.999h-11.2v89.6h302.4zM464.398 369.333h-112v112h112v-112zM363.598 386.135h78.399v78.399h-72.801l-5.599-78.399zM677.198 167.733h-112v117.599h112v-117.599zM576.398 184.535h78.399v78.399h-72.801l-5.599-78.399zM570.797 218.133h-72.801v201.6h-44.801v16.799h61.6v-201.6h55.999v-16.799z" />
<glyph unicode="&#xe997;" glyph-name="menu-text-icon" data-tags="menu-text-icon" d="M754.997 612.268v-145.241h-16.76c-5.587 27.93-16.76 50.277-27.93 72.621-11.173 16.76-27.93 27.93-44.69 33.517s-33.517 5.587-50.277 5.587h-39.104v-418.969c0-16.76 0-33.517 5.587-50.277 5.587-5.587 11.173-11.173 16.76-16.76 11.173-5.587 22.344-11.173 33.517-5.587h16.76v-16.76h-279.312v16.76h16.76c11.173 0 27.93 0 39.104 5.587 5.587 5.587 11.173 11.173 16.76 16.76 5.587 16.76 5.587 33.517 5.587 50.277v424.555h-39.104c-27.93 0-55.864-5.587-78.207-22.344-27.93-22.344-39.104-55.864-44.69-89.381h-16.76v139.658h486.004z" />
<glyph unicode="&#xe998;" glyph-name="uniE998" data-tags="uniE998" d="M666.188 256.187c-105.86 0-188.707 82.847-188.707 188.707s82.847 188.707 188.707 188.707 188.707-82.847 188.707-188.707v0c0-101.258-82.847-188.707-188.707-188.707zM776.651 463.305c0 9.205-9.205 13.808-13.808 13.808v0h-64.436v64.436c0 9.205-9.205 13.808-13.808 13.808v0h-32.219c-9.205 0-13.808-9.205-13.808-13.808 0 0 0 0 0 0v-64.436h-64.436c-9.205 0-13.808-9.205-13.808-13.808v0-32.219c0-9.205 9.205-13.808 13.808-13.808v0h64.436v-64.436c0-9.205 9.205-13.808 13.808-13.808v0h32.219c9.205 0 13.808 9.205 13.808 13.808v0 64.436h64.436c9.205 0 13.808 9.205 13.808 13.808v0 32.219zM187.515 371.253h243.939c-9.205 18.411-9.205 41.424-9.205 64.436 0 0 0 4.603 0 4.603h-234.734c-9.205 0-18.411-9.205-18.411-18.411v0-32.219c0-9.205 9.205-18.411 18.411-18.411 0 0 0 0 0 0v0zM187.515 260.79h317.581c-23.013 18.411-46.027 46.027-59.834 73.642h-257.747c-9.205 0-18.411-9.205-18.411-18.411v0-36.821c0-9.205 9.205-18.411 18.411-18.411 0 0 0 0 0 0v0zM652.38 122.711h-464.865c-9.205 0-18.411-9.205-18.411-18.411v-36.821c0-9.205 9.205-18.411 18.411-18.411h464.865c9.205 0 18.411 9.205 18.411 18.411 0 0 0 0 0 0v36.821c0 9.205-9.205 18.411-18.411 18.411 0 0 0 0 0 0zM187.515 154.93h359.005c9.205 0 18.411 9.205 18.411 18.411v0 36.821c0 9.205-9.205 18.411-18.411 18.411v0h-359.005c-9.205 0-18.411-9.205-18.411-18.411v0-36.821c0-9.205 9.205-18.411 18.411-18.411 0 0 0 0 0 0z" />
<glyph unicode="&#xe999;" glyph-name="uniE999" data-tags="uniE999" d="M178.309 371.254h253.145c-9.205 23.013-13.808 46.027-13.808 73.642h-239.337c-4.603 0-9.205-4.603-9.205-9.205v-55.232c0-4.603 4.603-9.205 9.205-9.205zM348.606 325.227v-55.232c0-4.603 4.603-9.205 9.205-9.205h147.284c-23.013 18.411-46.027 46.027-59.834 73.642h-87.45c-4.603 0-9.205-4.603-9.205-9.205zM178.309 154.931c4.603 0 4.603 0 4.603 4.603l82.847 82.847c4.603 4.603 4.603 9.205 0 13.808l-82.847 78.244c0 0-4.603 4.603-4.603 4.603-4.603 0-9.205-4.603-9.205-9.205v-161.092c0-9.205 4.603-13.808 9.205-13.808v0zM661.585 118.109h-483.276c-4.603 0-9.205-4.603-9.205-4.603v-55.232c0-4.603 4.603-9.205 9.205-9.205h483.276c4.603 0 9.205 4.603 9.205 9.205v55.232c0 4.603-4.603 9.205-9.205 4.603v0zM652.38 210.162c-32.219 0-59.834 4.603-87.45 18.411h-207.118c-4.603 0-9.205-4.603-9.205-9.205v-55.232c0-4.603 4.603-4.603 9.205-4.603h303.773c4.603 0 9.205 4.603 9.205 9.205v46.027l-18.411-4.603zM666.188 256.188c-105.86 0-188.707 82.847-188.707 188.707s82.847 188.707 188.707 188.707 188.707-82.847 188.707-188.707v0c0-101.258-82.847-188.707-188.707-188.707zM776.651 463.306c0 9.205-9.205 13.808-13.808 13.808v0h-64.436v64.436c0 9.205-9.205 13.808-13.808 13.808v0h-32.219c-9.205 0-13.808-9.205-13.808-13.808 0 0 0 0 0 0v-64.436h-64.436c-9.205 0-13.808-9.205-13.808-13.808v0-32.219c0-9.205 9.205-13.808 13.808-13.808v0h64.436v-64.436c0-9.205 9.205-13.808 13.808-13.808v0h32.219c9.205 0 13.808 9.205 13.808 13.808v0 64.436h64.436c9.205 0 13.808 9.205 13.808 13.808v0 32.219z" />
</font>
</defs>
</svg>
